Совершеннолетие (Борис Шрейбер) [1935, Драма, DVDScreener]

Ответить на тему
 
Автор Сообщение

user ®

Стаж: 7 лет 7 месяцев

Сообщений: 20008

Пост Пост: #1 от 22-Дек-2014 20:40

[Цитировать]

Совершеннолетие
Жанр: Драма
Год выпуска: 1935
Продолжительность: 01:13:18
Режиссёр: Борис Шрейбер
В ролях: Ефим Альтус, Ольга Беюл, Антонина Брянцева, Раиса Есипова, Исай Зонне, Павел Кадочников, Леонид Макарьев, Сергей Поначевный, А. Семёнов, Юрий Толубеев, Лев Шостак, М. Шувалов

Описание: 1918 год. Красноармейцы отступают из города под натиском немецких оккупантов. На вокзале матрос Андрей прощается со своей девушкой Таней. Немцы занимают город. К жене Суре и сыну Моте после годичного отсутствия возвращается рабочий Гедалий. Мотя и его любимая девушка Катя как члены подпольной большевистской организации распространяют листовки с призывом препятствовать вывозу немцами 200 вагонов продовольствия. В молодежную группу подпольщиков входят также Таня, Михась и Петр. Отца, ведущего обывательский образ жизни, посещающего с женой синагогу, Мотя считает "старорежимником". Руководитель подполья Дикий передаст через связного — слепого уличного певца — задание рабочим-железнодорожникам : бастовать. Но немцы подавляют забастовку, а хлеб грузят солдаты. На явку приходит связной — матрос Андрей — с известием о наступлении Красной Армии. Дикий передает новое задание — взорвать мост, чтобы не пропустить груз. Катя, испугавшись опасности, убегает. Хозяин завода, где работает Гедалий, Яворский, доверяя ему, поскольку Гедалий бежал из "Совдепии", просит сообщить, если на заводе появится Дикий. На встрече в лесу Михась сообщает Кате, что товарищи решили ее отпустить. Обрадованная, Катя бежит по лесу и оказывается в месте расположения немецких военных складов. Ее арестовывают. Страшась пыток, она пытается покончить с собой. Андрей отправляет Мотю с запиской к Дикому. На условленной скамейке бульвара Мотя с изумлением обнаруживает отца. Солдат Ганс Мюллер приносит Моте предсмертную записку Кати. В отчаянии тот убегает. Гедалий выясняет у Мюллера, что Катя жива, сообщает об этом сыну и поручает ему доставку динамита. Андрей, Таня и Мотя взрывают мост. Немцы отступают. Приходит Красная Армия. В роскошном кабинете Яворского, где теперь городской Совет, Гедалий сообщает арестованному хозяину, что Дикий — он. Здесь происходит радостная встреча Гедалия-Дикого с членами молодежной подпольной группы и женой.
Доп. информация: Релиз: , pmv
Сэмпл: http://multi-up.com/1022045
Качество видео: DVDScreener
Формат видео: AVI
Видео: 720x544 (1.32:1), 25 fps, XviD build 73 ~1944 kbps avg, 0.20 bit/pixel
Аудио: 48 kHz, MPEG Layer 3, 2 ch, ~128.00 kbps avg
MediaInfo
Format : AVI
Format/Info : Audio Video Interleave
File size : 1.07 GiB
Duration : 1h 13mn
Overall bit rate : 2 082 Kbps
Writing library : VirtualDub build 35560/release
Video
ID : 0
Format : MPEG-4 Visual
Format profile : Advanced Simple@L5
Format settings, BVOP : 2
Format settings, QPel : No
Format settings, GMC : No warppoints
Format settings, Matrix : Default (H.263)
Codec ID : XVID
Codec ID/Hint : XviD
Duration : 1h 13mn
Bit rate : 1 945 Kbps
Width : 720 pixels
Height : 544 pixels
Display aspect ratio : 4:3
Frame rate : 25.000 fps
Color space : YUV
Chroma subsampling : 4:2:0
Bit depth : 8 bits
Scan type : Progressive
Compression mode : Lossy
Bits/(Pixel*Frame) : 0.199
Stream size : 1 020 MiB (93%)
Writing library : XviD 73
Audio
ID : 1
Format : MPEG Audio
Format version : Version 1
Format profile : Layer 3
Mode : Joint stereo
Codec ID : 55
Codec ID/Hint : MP3
Duration : 1h 13mn
Bit rate mode : Constant
Bit rate : 128 Kbps
Channel(s) : 2 channels
Sampling rate : 48.0 KHz
Compression mode : Lossy
Delay relative to video : 12ms
Stream size : 67.1 MiB (6%)
Alignment : Split accross interleaves
Interleave, duration : 40 ms (1.00 video frame)
Interleave, preload duration : 500 ms
Скриншот c названием фильма Скриншоты
Скачать

Скачать торрент!

Как скачивать? · Что такое торрент? · Рейтинг и ограничения

Сайт не распространяет и не хранит электронные версии произведений, а лишь предоставляет доступ к создаваемому пользователями каталогу ссылок на торрент-файлы, которые содержат только списки хеш-сумм

[Профиль] [ЛС]
Показать сообщения:    
Ответить на тему

Текущее время: Сегодня 18:11

Часовой пояс: GMT + 4



Вы не можете начинать темы
Вы не можете отвечать на сообщения
Вы не можете редактировать свои сообщения
Вы не можете удалять свои сообщения
Вы не можете голосовать в опросах
Вы не можете прикреплять файлы к сообщениям
Вы не можете скачивать файлы