Великий уравнитель / The Equalizer (Антуан Фукуа / Antoine Fuqua) [2014, США, боевик, триллер, криминал, BDRip-AVC] Dub + Original (Eng) + Sub (Rus, Eng)

Ответить на тему
 
Автор Сообщение

user ®

Стаж: 7 лет 7 месяцев

Сообщений: 20008

Пост Пост: #1 от 22-Дек-2014 17:30

[Цитировать]

Великий уравнитель / The Equalizer
Страна: США
Жанр: боевик, триллер, криминал
Год выпуска: 2014
Продолжительность: 02:12:02
Перевод: Профессиональный (дублированный) | BD EUR
Cубтитры: русские (BD + iTunes), английские
Оригинальная аудиодорожка: английский (отдельно)
Режиссер: Антуан Фукуа / Antoine Fuqua
В ролях: Дензел Вашингтон, Мартон Чокаш, Хлоя Грейс Морец, Дэвид Харбор, Хейли Беннетт, Билл Пуллман, Мелисса Лео, Дэвид Мюнье, Джонни Скуртис, Алекс Видов
Описание: Заступившись за едва знакомую девушку, герой вынужден вступить в неравную схватку с бандитами и ЦРУ-шными оборотнями в погонах. Финал у этой войны был бы плачевно предсказуем, не будь он отставной спецназовец, который только начал жизнь с чистого листа...

Исходник: [url=http://***/forum/viewtopic.php?t=4894856]BDRemux[/url]
Качество видео: BDRip-AVC | | sample
Формат видео: MKV
Видео кодек: x264
Видео: AVC 1146x480 (2.40:1), 23.976 fps, ~1970 Kbps, 0.15 bit/pixel
Аудио #1: Russian AC3 6ch 48kHz 448Kbps | Dub BD EUR
Аудио #2: English AC3 6ch 48kHz 448Kbps | Original (отдельным файлом)
Формат субтитров: softsub (SRT)
Главы: есть

MediaInfo | x264
x264
--[Information] [21.12.2014 7:51:54] raw [info]: 1146x480p 1:1 @ 24000/1001 fps (cfr)
--[Information] [21.12.2014 19:02:28] x264 [info]: frame I:1747 Avg QP:13.37 size: 64891
--[Information] [21.12.2014 19:02:29] x264 [info]: frame P:39028 Avg QP:16.15 size: 18494
--[Information] [21.12.2014 19:02:29] x264 [info]: frame B:149186 Avg QP:17.08 size: 7481
--[Information] [21.12.2014 19:02:29] x264 [info]: kb/s:1970.23
General
Complete name : D:\...\The.Equalizer.2014.BDRip.x264.DD5.1.Rus-E76.mkv
Format : Matroska
Format version : Version 2
File size : 2.23 GiB
Duration : 2h 12mn
Overall bit rate : 2 420 Kbps
Movie name : The.Equalizer.2014.BDRip.x264.DD5.1.Rus.Eng-E76
Encoded date : UTC 2014-12-21 19:22:34
Writing application : mkvmerge v7.0.0 ('Where We Going') 64bit built on Jun 9 2014 15:16:27
Writing library : libebml v1.3.0 + libmatroska v1.4.1
Video
ID : 1
Format : AVC
Format/Info : Advanced Video Codec
Format profile : High@L4.1
Format settings, CABAC : Yes
Format settings, ReFrames : 12 frames
Codec ID : V_MPEG4/ISO/AVC
Duration : 2h 12mn
Bit rate : 1 924 Kbps
Width : 1 146 pixels
Height : 480 pixels
Display aspect ratio : 2.40:1
Frame rate mode : Constant
Frame rate : 23.976 fps
Color space : YUV
Chroma subsampling : 4:2:0
Bit depth : 8 bits
Scan type : Progressive
Bits/(Pixel*Frame) : 0.146
Stream size : 1.77 GiB (80%)
Title : The Equalizer (2014)
Writing library : x264 core 142 r2491kMod 24e4fed
Encoding settings : cabac=1 / ref=12 / deblock=1:-3:-3 / analyse=0x3:0x113 / me=umh / subme=11 / psy=1 / fade_compensate=0.00 / psy_rd=1.00:0.00 / mixed_ref=1 / me_range=48 / chroma_me=1 / trellis=2 / 8x8dct=1 / cqm=0 / deadzone=21,11 / fast_pskip=1 / chroma_qp_offset=-2 / threads=6 / lookahead_threads=1 / sliced_threads=0 / nr=0 / decimate=1 / interlaced=0 / bluray_compat=0 / constrained_intra=0 / fgo=0 / bframes=12 / b_pyramid=2 / b_adapt=2 / b_bias=0 / direct=1 / weightb=1 / open_gop=0 / weightp=2 / keyint=240 / keyint_min=23 / scenecut=40 / intra_refresh=0 / rc_lookahead=0 / rc=crf / mbtree=0 / crf=18.0000 / qcomp=0.55 / qpmin=0 / qpmax=69 / qpstep=4 / vbv_maxrate=62500 / vbv_bufsize=78125 / crf_max=0.0 / nal_hrd=none / filler=0 / ip_ratio=1.40 / pb_ratio=1.10 / aq=1:1.00 / zones=183130,189960,q=30
Language : English
Default : Yes
Forced : No
Matrix coefficients : BT.709
Audio
ID : 2
Format : AC-3
Format/Info : Audio Coding 3
Mode extension : CM (complete main)
Format settings, Endianness : Big
Codec ID : A_AC3
Duration : 2h 12mn
Bit rate mode : Constant
Bit rate : 448 Kbps
Channel(s) : 6 channels
Channel positions : Front: L C R, Side: L R, LFE
Sampling rate : 48.0 KHz
Bit depth : 16 bits
Compression mode : Lossy
Stream size : 423 MiB (19%)
Title : Dub BD EUR
Language : Russian
Default : Yes
Forced : No
Text #1
ID : 3
Format : UTF-8
Codec ID : S_TEXT/UTF8
Codec ID/Info : UTF-8 Plain Text
Title : forced BD
Language : Russian
Default : Yes
Forced : No
Text #2
ID : 4
Format : UTF-8
Codec ID : S_TEXT/UTF8
Codec ID/Info : UTF-8 Plain Text
Title : BD
Language : Russian
Default : No
Forced : No
Text #3
ID : 5
Format : UTF-8
Codec ID : S_TEXT/UTF8
Codec ID/Info : UTF-8 Plain Text
Title : forced iTunes
Language : Russian
Default : No
Forced : No
Text #4
ID : 6
Format : UTF-8
Codec ID : S_TEXT/UTF8
Codec ID/Info : UTF-8 Plain Text
Title : iTunes
Language : Russian
Default : No
Forced : No
Text #5
ID : 7
Format : UTF-8
Codec ID : S_TEXT/UTF8
Codec ID/Info : UTF-8 Plain Text
Title : forced
Language : English
Default : No
Forced : No
Text #6
ID : 8
Format : UTF-8
Codec ID : S_TEXT/UTF8
Codec ID/Info : UTF-8 Plain Text
Language : English
Default : No
Forced : No
Text #7
ID : 9
Format : UTF-8
Codec ID : S_TEXT/UTF8
Codec ID/Info : UTF-8 Plain Text
Title : SDH
Language : English
Default : No
Forced : No
Text #8
ID : 10
Format : UTF-8
Codec ID : S_TEXT/UTF8
Codec ID/Info : UTF-8 Plain Text
Title : SDH-Colored
Language : English
Default : No
Forced : No
Menu
00:00:00.000 : en:00:00:00.000
00:06:49.659 : en:00:06:49.659
...
02:00:01.486 : en:02:00:01.486
Скриншоты



vs source

vs [url=http://***/forum/viewtopic.php?t=4894870]HQCLUB[/url]
=> [url=http://***/forum/viewtopic.php?t=866172]Новые релизы в AVC[/url] | | [url=http://***/forum/viewtopic.php?t=3177622]Заказ рипов в AVC[/url]
Скачать

Скачать торрент!

Как скачивать? · Что такое торрент? · Рейтинг и ограничения

Сайт не распространяет и не хранит электронные версии произведений, а лишь предоставляет доступ к создаваемому пользователями каталогу ссылок на торрент-файлы, которые содержат только списки хеш-сумм

[Профиль] [ЛС]
Показать сообщения:    
Ответить на тему

Текущее время: Сегодня 08:59

Часовой пояс: GMT + 4



Вы не можете начинать темы
Вы не можете отвечать на сообщения
Вы не можете редактировать свои сообщения
Вы не можете удалять свои сообщения
Вы не можете голосовать в опросах
Вы не можете прикреплять файлы к сообщениям
Вы не можете скачивать файлы