Первое Рождество медведя Йоги / Yogi\'s First Christmas (Рэй Паттерсон / Rae Patterson) [1980 г., США, семейный, мультфильм, DVDRip] DUB + Original Eng

Ответить на тему
 
Автор Сообщение

user ®

Стаж: 13 лет

Сообщений: 15041

Пост Пост: #1 от 22-Дек-2014 11:10

[Цитировать]

Первое Рождество медведя Йоги / Yogi's First Christmas
Страна: США
Жанр: семейный, мультфильм
Продолжительность: 01:38:49
Год выпуска: 1980
Перевод: Профессиональный (дублированный) - "Нева 1" 1996 г. (с кассеты от ЕА)
Русские субтитры: нет
Режиссёр: Рэй Паттерсон / Rae Patterson
Описание: Йоги и его маленький друг Бу-бу обычно отправлялись в зимнюю спячку на время рождественских праздников, но на этот раз они проснулись — их разбудила веселая семейка, приехавшая на каникулы в Джеллистоун Лодж!
Однако хозяин этого уютного местечка обеспокоен странными событиями, произошедшими здесь ровно год назад. Если бы он только знал, что за этим стоит его нерадивый племянник, который и на этот раз намерен распугать всех гостей и испортить всем праздник!
Но Йоги, как всегда, удается перехитрить мелких пакостников, и в награду за это Санта Клаус преподносит ему удивительный подарок.- | | Семпл | -Качество: DVDRip
Формат: AVI
Видео: 704x528 (1.33:1), 23.976 fps, XviD build 73 ~1716 kbps avg, 0.19 bit/pixel
Аудио #01 Русский, 48.0 KHz, AC3, 2 ch, 192 kbps - Дубляж | "Нева 1" 1996 г.
Аудио #02 English, 48.0 KHz, AC3, 2 ch, 192 kbps

Присоединяюсь к благодарностям!
  • За иcходник DVD R1 спасибо: 4ug0, Slipknot_cooler.
  • За помощь в реавторинге DVD спасибо Bobropandavar.
  • За красивое меню, обложку и блин спасибо Lexa1988-L1.
  • Оцифровка перевода с VHS и работа с звуковой дорожкой - bora86bora.
    MediaInfo
GeneralComplete name : Yogi's.First.Christmas.Dub.Eng_Olu6ka.aviFormat : AVIFormat/Info : Audio Video InterleaveFile size : 1.46 GiBDuration : 1h 38mnOverall bit rate : 2 114 KbpsWriting application : VirtualDubModRus 1.5.10.2 (build 2542/release)Writing library : VirtualDubMod build 2542/release
VideoID : 0Format : MPEG-4 VisualFormat profile : Advanced Simple@L5Format settings, BVOP : 1Format settings, QPel : NoFormat settings, GMC : No warppointsFormat settings, Matrix : CustomCodec ID : XVIDCodec ID/Hint : XviDDuration : 1h 38mnBit rate : 1 716 KbpsWidth : 704 pixelsHeight : 528 pixelsDisplay aspect ratio : 4:3Frame rate : 23.976 fpsColor space : YUVChroma subsampling : 4:2:0Bit depth : 8 bitsScan type : ProgressiveCompression mode : LossyBits/(Pixel*Frame) : 0.193Stream size : 1.18 GiB (81%)Writing library : XviD 73
Audio #1ID : 1Format : AC-3Format/Info : Audio Coding 3Mode extension : CM (complete main)Format settings, Endianness : BigCodec ID : 2000Duration : 1h 38mnBit rate mode : ConstantBit rate : 192 KbpsChannel count : 2 channelsChannel positions : Front: L RSampling rate : 48.0 KHzBit depth : 16 bitsCompression mode : LossyStream size : 136 MiB (9%)Alignment : Split accross interleavesInterleave, duration : 42 ms (1.00 video frame)Interleave, preload duration : 500 ms
Audio #2ID : 2Format : AC-3Format/Info : Audio Coding 3Mode extension : CM (complete main)Format settings, Endianness : BigCodec ID : 2000Duration : 1h 38mnBit rate mode : ConstantBit rate : 192 KbpsChannel count : 2 channelsChannel positions : Front: L RSampling rate : 48.0 KHzBit depth : 16 bitsCompression mode : LossyStream size : 136 MiB (9%)Alignment : Split accross interleavesInterleave, duration : 42 ms (1.00 video frame)Interleave, preload duration : 500 ms
Скриншоты Релиз от группы
Скачать

Скачать торрент! Первое Рождество медведя Йоги / Yogi\'s First Christmas (Рэй Паттерсон / Rae Patterson) [1980 г., США, семейный, мультфильм, DVDRip] DUB + Original Eng

Как скачивать? · Что такое торрент? · Рейтинг и ограничения

Сайт не распространяет и не хранит электронные версии произведений, а лишь предоставляет доступ к создаваемому пользователями каталогу ссылок на торрент-файлы, которые содержат только списки хеш-сумм

[Профиль] [ЛС]
Показать сообщения:    
Ответить на тему

Текущее время: Сегодня 04:02

Часовой пояс: GMT + 4



Вы не можете начинать темы
Вы не можете отвечать на сообщения
Вы не можете редактировать свои сообщения
Вы не можете удалять свои сообщения
Вы не можете голосовать в опросах
Вы не можете прикреплять файлы к сообщениям
Вы не можете скачивать файлы