След тигра (Алексей Козлов) [2014, Криминальная драма, DVB]

Ответить на тему
 
Автор Сообщение

user ®

Стаж: 7 лет 7 месяцев

Сообщений: 20008

Пост Пост: #1 от 22-Дек-2014 03:50

[Цитировать]

След тигра
Год выпуска: 2014
Производство: Россия / «Централ Партнершип»
Жанр: Криминальная драма
Продолжительность: ~01:31:13
Субтитры: нет
Режиссёр: Алексей Козлов
В ролях: Александр Балуев, Алексей Кравченко, Денис Никифоров, Александр Устюгов, Мария Порошина, Мария Пирогова, Роман Мадянов, Вадим Андреев
Описание: В небольшом поселке, расположенном в тайге Приморского края, живет потомственный егерь Павел Широков. На его участке происходит дерзкое преступление - браконьеры отстреливают двух уссурийских тигров. В тот же день сотрудники ДПС останавливают на трассе внедорожник. На просьбу открыть багажник пассажиры реагируют агрессивно, в результате чего завязывается перестрелка, и все ее участники погибают. Прибывший на место преступления полковник Хазов, занимающийся расследованием этого дела, обнаруживает в багажнике машины убитых тигров и узнает в одном из погибших браконьеров местного охотника-проводника.Хазов уверен, что в ближайшие дни преступники будут искать нового человека, который сможет вывести их на след тигра. Он предлагает Широкову опередить браконьеров и выйти к местонахождению тигра первыми, чтобы успеть предотвратить убийство животного. Ради такого дела егерь соглашается. Уже в тайге, практически выследив уссурийского тигра, Широков вдруг понимает, что он попал в смертельную ловушку. В момент, когда герою кажется, что у него уже нет шансов на спасение - помощь приходит неожиданно, и прямо здесь, в тайге!

Качество видео: DVB
Формат видео: TS
Видео: 720х576@1024х576 (16:9), 2356 Kbps, 25 fps, Bits/(Pixel*Frame): 0.227
Аудио: 48 kHz, MPEG Audio, 2ch, ~192 kbps
Сторонней рекламы нет!
MediaInfo
ОбщееИдентификатор : 1 (0x1)Полное имя : H:\Sled.tigra.2014.DVB.Files-x.tsФормат : MPEG-TSРазмер файла : 1,71 ГбайтПродолжительность : 1 ч. 31 м.Общий поток : 2682 Кбит/сек
ВидеоИдентификатор : 68 (0x44)Идентификатор меню : 1 (0x1)Формат : AVCФормат/Информация : Advanced Video CodecПрофиль формата : High@L3.0Параметр CABAC формата : ДаПараметр ReFrames формата : 4 кадраПараметры GOP формата : M=1, N=38Идентификатор кодека : 27Продолжительность : 1 ч. 31 м.Битрейт : 2356 Кбит/секШирина : 720 пикс.Высота : 576 пикс.Соотношение сторон : 16:9Частота кадров : 25,000 кадр/секСтандарт вещания : ComponentЦветовое пространство : YUVПодвыборка цветности : 4:2:0Битовая глубина : 8 битТип развёртки : ЧересстрочнаяПорядок развёртки : Верхнее поле первоеБит/(Пиксели*Кадры) : 0.227Размер потока : 1,50 Гбайт (88%)Основные цвета : BT.470-6 System B, BT.470-6 System G, BT.601-6 625, BT.1358 625, BT.1700 625 PAL, BT.1700 625 SECAMХарактеристики трансфера : BT.470-6 System B, BT.470-6 System GКоэффициенты матрицы : BT.470-6 System B, BT.470-6 System G, BT.601-6 625, BT.1358 625, BT.1700 625 PAL, BT.1700 625 SECAM, IEC 61966-2-4 601
АудиоИдентификатор : 69 (0x45)Идентификатор меню : 1 (0x1)Формат : MPEG AudioВерсия формата : Version 1Профиль формата : Layer 2Режим : Dual monoИдентификатор кодека : 3Продолжительность : 1 ч. 31 м.Вид битрейта : ПостоянныйБитрейт : 192 Кбит/секКаналы : 2 каналаЧастота : 48,0 КГцМетод сжатия : С потерямиРазмер потока : 125 Мбайт (7%)Язык : Russian
Сравнение
Сравнение с раздачей [url=http://***/forum/viewtopic.php?t=4896717]http://***/forum/viewtopic.php?t=4896717[/url]
http://screenshotcomparison.com/comparison/105319
Раздача группы:
Отдельное спасибо за предоставление исходника.
Скриншот c названием фильма Скриншоты
Скачать

Скачать торрент!

Как скачивать? · Что такое торрент? · Рейтинг и ограничения

Сайт не распространяет и не хранит электронные версии произведений, а лишь предоставляет доступ к создаваемому пользователями каталогу ссылок на торрент-файлы, которые содержат только списки хеш-сумм

[Профиль] [ЛС]
Показать сообщения:    
Ответить на тему

Текущее время: Сегодня 12:47

Часовой пояс: GMT + 4



Вы не можете начинать темы
Вы не можете отвечать на сообщения
Вы не можете редактировать свои сообщения
Вы не можете удалять свои сообщения
Вы не можете голосовать в опросах
Вы не можете прикреплять файлы к сообщениям
Вы не можете скачивать файлы