След тигра (Алексей Козлов) [2014, Криминальная драма, DVB-T2]

Ответить на тему
 
Автор Сообщение

user ®

Стаж: 7 лет 7 месяцев

Сообщений: 20008

Пост Пост: #1 от 22-Дек-2014 00:40

[Цитировать]

След тигра
Год выпуска: 2014
Производство: Россия, ООО «Студия „КонтАкт продакшн“»
Жанр: Криминальная драма
Продолжительность: 01:31:13
Режиссёр: Алексей Козлов
Автор сценария: Андрей Тумаркин
Оператор: Валерий Дегтярев
Композитор: Юрий Потеенко
В ролях: Александр Балуев, Алексей Кравченко, Денис Никифоров, Александр Устюгов, Мария Порошина, Мария Пирогова, Роман Мадянов, Вадим Андреев
Описание: В небольшом поселке, расположенном в тайге Приморского края, живет потомственный егерь Павел Широков. На его участке происходит дерзкое преступление - браконьеры отстреливают двух уссурийских тигров. В тот же день сотрудники ДПС останавливают на трассе внедорожник. На просьбу открыть багажник пассажиры реагируют агрессивно, в результате чего завязывается перестрелка, и все ее участники погибают. Прибывший на место преступления полковник Хазов, занимающийся расследованием этого дела, обнаруживает в багажнике машины убитых тигров и узнает в одном из погибших браконьеров местного охотника-проводника.Хазов уверен, что в ближайшие дни преступники будут искать нового человека, который сможет вывести их на след тигра. Он предлагает Широкову опередить браконьеров и выйти к местонахождению тигра первыми, чтобы успеть предотвратить убийство животного. Ради такого дела егерь соглашается. Уже в тайге, практически выследив уссурийского тигра, Широков вдруг понимает, что он попал в смертельную ловушку. В момент, когда герою кажется, что у него уже нет шансов на спасение - помощь приходит неожиданно, и прямо здесь, в тайге!
Раздача группы:
Сэмпл
[url=http://***/forum/viewtopic.php?t=4896998]По следу тигра[/url]
Качество: DVB-T2
Формат: TS
Видео кодек: AVC
Аудио кодек: MP2
Видео: AVC, 720х576@1024х576 (16:9), 2671 Kbps, 25 fps, Bits/(Pixel*Frame): 0.254
Аудио: MP2, 192 Kbps, 48.0 KHz, 2 ch
MI
D:\видео\След тигра.ts
General #1
ID : 1 (0x1)
Complete name : D:\видео\След тигра.ts
Format : MPEG-TS
File size : 1.92 GiB
Duration : 1h 31mn
Overall bit rate : 3 018 Kbps
Video #1041
ID : 1041 (0x411)
Menu ID : 1 (0x1)
Format : AVC
Format/Info : Advanced Video Codec
Format profile : Main@L3.0
Format settings, CABAC : Yes
Format settings, ReFrames : 3 frames
Format settings, GOP : M=4, N=28
Codec ID : 27
Duration : 1h 31mn
Bit rate : 2 674 Kbps
Width : 720 pixels
Height : 576 pixels
Display aspect ratio : 16:9
Frame rate : 25.000 fps
Standard : Component
Color space : YUV
Chroma subsampling : 4:2:0
Bit depth : 8 bits
Scan type : Interlaced
Scan order : Top Field First
Bits/(Pixel*Frame) : 0.258
Stream size : 1.70 GiB (89%)
Color primaries : BT.470-6 System B, BT.470-6 System G, BT.601-6 625, BT.1358 625, BT.1700 625 PAL, BT.1700 625 SECAM
Transfer characteristics : BT.470-6 System B, BT.470-6 System G
Matrix coefficients : BT.470-6 System B, BT.470-6 System G, BT.601-6 625, BT.1358 625, BT.1700 625 PAL, BT.1700 625 SECAM, IEC 61966-2-4 601
Audio #1042
ID : 1042 (0x412)
Menu ID : 1 (0x1)
Format : MPEG Audio
Format version : Version 1
Format profile : Layer 2
Codec ID : 3
Duration : 1h 31mn
Bit rate mode : Constant
Bit rate : 192 Kbps
Channel(s) : 2 channels
Sampling rate : 48.0 KHz
Compression mode : Lossy
Stream size : 125 MiB (6%)
Language : English
Text #1044-100
ID : 1044 (0x414)-100
Menu ID : 1 (0x1)
Format : Teletext
Language : Russian
Скриншоты
Скачать

Скачать торрент!

Как скачивать? · Что такое торрент? · Рейтинг и ограничения

Сайт не распространяет и не хранит электронные версии произведений, а лишь предоставляет доступ к создаваемому пользователями каталогу ссылок на торрент-файлы, которые содержат только списки хеш-сумм

[Профиль] [ЛС]
Показать сообщения:    
Ответить на тему

Текущее время: Сегодня 10:42

Часовой пояс: GMT + 4



Вы не можете начинать темы
Вы не можете отвечать на сообщения
Вы не можете редактировать свои сообщения
Вы не можете удалять свои сообщения
Вы не можете голосовать в опросах
Вы не можете прикреплять файлы к сообщениям
Вы не можете скачивать файлы