Дождь идёт (Анна Шепилова) [2012, Анимационный фильм, DVDScreener]

Ответить на тему
 
Автор Сообщение

user ®

Стаж: 7 лет 7 месяцев

Сообщений: 20008

Пост Пост: #1 от 21-Дек-2014 21:30

[Цитировать]

Дождь идёт
Страна: Россия
Жанр: Анимационный фильм
Продолжительность: 00:09:14
Год выпуска: 2012
Русские субтитры: нет
Режиссёр: Анна Шепилова
Описание: О том, как война разом разрушила беззаботную жизнь маленького мальчика.
Доп. информация: Monstra. Lisbon animated film festival, Лиссабон (Португалия), 2013
Открытый фестиваль анимационного кино, Суздаль (Россия), 2013
Московский международный кинофестиваль (ММКФ), Москва (Россия), 2013
Открытый Фестиваль студенческих и дебютных фильмов «Святая Анна», Москва (Россия), 2013
Национальный кинофестиваль дебютов «Движение», Омск (Россия), 2013
Международный фестиваль короткометражных фильмов в Клермон Ферране, Клермон Ферран (Франция), 2013
Международный кинофестиваль в Нанси 'Aye Aye', Нанси (Франция), 2013
Mostra Internazionale del Nuovo Cinema, Pesaro (Италия), 2013
International Animated Film Festival of Brussels : Anima, Брюссель (Бельгия), 2013
Большой фестиваль мультфильмов, Москва (Россия), 2012
Фестиваль российского кино 'Окно в Европу', Выборг (Россия), 2012
Качество: DVDScreener
Формат: AVI
Видео: DIVX, 720x416, 25fps, 1629kbps
Аудио: MPEG Layer 3, 48kHz, 2ch, 192kbps
Субтитры: отсутствуют
Подробные технические данные
Полное имя : Дождь идёт.aviФормат : AVIФормат/Информация : Audio Video InterleaveРазмер файла : 121 МбайтПродолжительность : 9 м. 14 с.Общий поток : 1831 Кбит/секПрограмма кодирования : VirtualDubMod 1.5.10.3 | www.virtualdub-fr.org || (build 2550/release)Библиотека кодирования : VirtualDubMod build 2550/release
ВидеоИдентификатор : 0Формат : MPEG-4 VisualПрофиль формата : Advanced Simple@L5Параметр BVOP формата : 1Параметр QPel формата : НетПараметр GMC формата : Без точки переходаПараметр матрицы формата : Default (H.263)Идентификатор кодека : DIVXИдентификатор кодека/Информация : Project MayoИдентификатор кодека/Подсказка : DivX 4Продолжительность : 9 м. 14 с.Битрейт : 1629 Кбит/секШирина : 720 пикселейВысота : 416 пикселейСоотношение сторон : 1,731Частота кадров : 25,000 кадров/секЦветовое пространство : YUVСубдискретизация насыщенности : 4:2:0Битовая глубина : 8 битТип развёртки : ПрогрессивнаяМетод сжатия : С потерямиБит/(Пиксели*Кадры) : 0.218Размер потока : 108 Мбайт (89%)Библиотека кодирования : XviD 1.2.1 (UTC 2008-12-04)
АудиоИдентификатор : 1Формат : MPEG AudioВерсия формата : Version 1Профиль формата : Layer 3Идентификатор кодека : 55Идентификатор кодека/Подсказка : MP3Продолжительность : 9 м. 14 с.Вид битрейта : ПостоянныйБитрейт : 192 Кбит/секКаналы : 2 каналаЧастота : 48,0 КГцМетод сжатия : С потерямиРазмер потока : 12,7 Мбайт (10%)Выравнивание : Соединение по промежуткамПродолжительность промежутка : 40 мс. (1,00 видеокадр)Время предзагрузки промежутка : 504 мс.Библиотека кодирования : LAME3.99rНастройки программы : -m s -V 4 -q 0 -lowpass 18.6 -b 192
Скриншоты
Скачать

Скачать торрент!

Как скачивать? · Что такое торрент? · Рейтинг и ограничения

Сайт не распространяет и не хранит электронные версии произведений, а лишь предоставляет доступ к создаваемому пользователями каталогу ссылок на торрент-файлы, которые содержат только списки хеш-сумм

[Профиль] [ЛС]
Показать сообщения:    
Ответить на тему

Текущее время: Сегодня 14:44

Часовой пояс: GMT + 4



Вы не можете начинать темы
Вы не можете отвечать на сообщения
Вы не можете редактировать свои сообщения
Вы не можете удалять свои сообщения
Вы не можете голосовать в опросах
Вы не можете прикреплять файлы к сообщениям
Вы не можете скачивать файлы