Непревзойденный боец / Xanda (Марко Мак / Marco Mak) [2004 г, Гонконг, Боевик, драма, DVDRip] MVO

Ответить на тему
 
Автор Сообщение

user ®

Стаж: 13 лет

Сообщений: 15071

Пост Пост: #1 от 21-Дек-2014 21:30

[Цитировать]

Непревзойденный боец / Xanda
Страна: Гонконг
Жанр: Боевик, драма
Год выпуска:2004
Продолжительность:01:32:17
Перевод: Профессиональный (многоголосый, закадровый)
Оригинальная аудиодорожка: нет
Cубтитры: нет
Режиссер:Марко Мак / Marco Mak
В ролях:Санг Вейлинг, Занг Хонг-Джун, Ли Тай, Ло Ю, Янг Ю-Чао, Тонг Юн
Описание:Ксанда - особый вид восточных единоборств. На первый взгляд он очень похож на пресловутые бои без правил, но на самом деле все гораздо сложнее. В этом предстоит убедиться самоуверенному провинциальному пареньку, приехавшему на заработки в большой город. Но беспечные деньки закончились очень быстро: найти работу оказалось совсем не просто. К тому же по стечению обстоятельств одному из его новых друзей срочно требуется большая сумма денег на дорогостоящую операцию. И тогда герой фильма решает вступить в школу Ксанда и принять участие в соревнованиях с большим призовым фондом. Путь к победе будет крут и тернист, и лишь тот, у кого в груди бьется храброе и благородное сердце, сможет взойти на самую вершину
Релиз:
Сэмпл
Качество: DVDRip
Контейнер: AVI
Видео: 688x480 (1.43:1), 25 fps, XviD build 50 ~1813 kbps avg, 0.22 bit/pixel
Аудио: 48 kHz, AC3 Dolby Digital, 3/2 (L,C,R,l,r) + LFE ch, ~448 kbps

Сравнение
[url=http://***/forum/viewtopic.php?t=671019]http://***/forum/viewtopic.php?t=671019[/url]
http://screenshotcomparison.com/comparison/104297/picture:1
MI
General
Complete name : C:\Users\Вячеслав\Downloads\Непревзойденный боец_DVDRip_1400_Некул.avi.avi
Format : AVI
Format/Info : Audio Video Interleave
File size : 1.46 GiB
Duration : 1h 32mn
Overall bit rate : 2 272 Kbps
Writing application : VirtualDubMod 1.5.10.3 | www.virtualdub-fr.org || (build 2550/release)
Writing library : VirtualDubMod build 2550/release
Video
ID : 0
Format : MPEG-4 Visual
Format profile : Advanced Simple@L5
Format settings, BVOP : 1
Format settings, QPel : No
Format settings, GMC : No warppoints
Format settings, Matrix : Default (MPEG)
Codec ID : XVID
Codec ID/Hint : XviD
Duration : 1h 32mn
Bit rate : 1 814 Kbps
Width : 688 pixels
Height : 480 pixels
Display aspect ratio : 1.433
Frame rate : 25.000 fps
Color space : YUV
Chroma subsampling : 4:2:0
Bit depth : 8 bits
Scan type : Progressive
Compression mode : Lossy
Bits/(Pixel*Frame) : 0.220
Stream size : 1.17 GiB (80%)
Writing library : XviD 1.2.1 (UTC 2008-12-04)
Audio
ID : 1
Format : AC-3
Format/Info : Audio Coding 3
Mode extension : CM (complete main)
Format settings, Endianness : Big
Codec ID : 2000
Duration : 1h 32mn
Bit rate mode : Constant
Bit rate : 448 Kbps
Channel(s) : 6 channels
Channel positions : Front: L C R, Side: L R, LFE
Sampling rate : 48.0 KHz
Bit depth : 16 bits
Compression mode : Lossy
Stream size : 296 MiB (20%)
Alignment : Split accross interleaves
Interleave, duration : 40 ms (1.00 video frame)
Interleave, preload duration : 500 ms
Скриншоты
Скачать

Скачать торрент! Непревзойденный боец / Xanda (Марко Мак / Marco Mak) [2004 г, Гонконг, Боевик, драма, DVDRip] MVO

Как скачивать? · Что такое торрент? · Рейтинг и ограничения

Сайт не распространяет и не хранит электронные версии произведений, а лишь предоставляет доступ к создаваемому пользователями каталогу ссылок на торрент-файлы, которые содержат только списки хеш-сумм

[Профиль] [ЛС]
Показать сообщения:    
Ответить на тему

Текущее время: Сегодня 17:53

Часовой пояс: GMT + 4



Вы не можете начинать темы
Вы не можете отвечать на сообщения
Вы не можете редактировать свои сообщения
Вы не можете удалять свои сообщения
Вы не можете голосовать в опросах
Вы не можете прикреплять файлы к сообщениям
Вы не можете скачивать файлы