Господин дракон / Wu Tang Champ Against Champ (Ли Хьок Су / Lee Hyeok-Su) [1980, Гонконг, боевые искусства, DVDRip] AVO (Кузнецов)

Ответить на тему
 
Автор Сообщение

user ®

Стаж: 13 лет

Сообщений: 15071

Пост Пост: #1 от 21-Дек-2014 21:30

[Цитировать]

Господин дракон / Wu Tang Champ Against Champ
Страна: Гонконг
Жанр: боевые искусства
Год выпуска: 1980
Продолжительность:01:27:33
Перевод: Авторский (одноголосый закадровый) [Кузнецов]
Оригинальная аудиодорожка: нет
Cубтитры: нет
Режиссер:Ли Хьок Су / Lee Hyeok-Su
В ролях:Дрэгон Ли, Ким Юн Ин, Роман Ли, Нам Биу-Тунг, Игл Хан
Описание: В округе шастает банда крутых бойцов кунгфу которая обижает и обирает всех у кого есть деньги. На защиту мирных граждан и их накоплений встает простой паренек мастерски владеющий кунгфу.
Релиз:
Сэмпл
Качество: DVDRip
Контейнер: AVI
Видео: 624x480 (1.30:1), 23.976 fps, XviD build 50 ~2186 kbps avg, 0.30 bit/pixel
Аудио: 48 kHz, AC3 Dolby Digital, 2/0 (L,R) ch, ~192 kbps

MI
General
Complete name : C:\Users\Вячеслав\Downloads\Господин дракон.DVDRip.1400.Некул .avi
Format : AVI
Format/Info : Audio Video Interleave
File size : 1.46 GiB
Duration : 1h 27mn
Overall bit rate : 2 388 Kbps
Writing application : VirtualDubMod 1.5.10.3 | www.virtualdub-fr.org || (build 2550/release)
Writing library : VirtualDubMod build 2550/release
Video
ID : 0
Format : MPEG-4 Visual
Format profile : Advanced Simple@L5
Format settings, BVOP : 1
Format settings, QPel : No
Format settings, GMC : No warppoints
Format settings, Matrix : Default (MPEG)
Codec ID : XVID
Codec ID/Hint : XviD
Duration : 1h 27mn
Bit rate : 2 187 Kbps
Width : 624 pixels
Height : 480 pixels
Display aspect ratio : 4:3
Frame rate : 23.976 fps
Color space : YUV
Chroma subsampling : 4:2:0
Bit depth : 8 bits
Scan type : Progressive
Compression mode : Lossy
Bits/(Pixel*Frame) : 0.305
Stream size : 1.34 GiB (92%)
Writing library : XviD 1.2.1 (UTC 2008-12-04)
Audio
ID : 1
Format : AC-3
Format/Info : Audio Coding 3
Mode extension : CM (complete main)
Format settings, Endianness : Big
Codec ID : 2000
Duration : 1h 27mn
Bit rate mode : Constant
Bit rate : 192 Kbps
Channel(s) : 2 channels
Channel positions : Front: L R
Sampling rate : 48.0 KHz
Bit depth : 16 bits
Compression mode : Lossy
Stream size : 120 MiB (8%)
Alignment : Split accross interleaves
Interleave, duration : 42 ms (1.00 video frame)
Interleave, preload duration : 500 ms
Скриншоты
Скачать

Скачать торрент! Господин дракон / Wu Tang Champ Against Champ (Ли Хьок Су / Lee Hyeok-Su) [1980, Гонконг, боевые искусства, DVDRip] AVO (Кузнецов)

Как скачивать? · Что такое торрент? · Рейтинг и ограничения

Сайт не распространяет и не хранит электронные версии произведений, а лишь предоставляет доступ к создаваемому пользователями каталогу ссылок на торрент-файлы, которые содержат только списки хеш-сумм

[Профиль] [ЛС]
Показать сообщения:    
Ответить на тему

Текущее время: Сегодня 16:02

Часовой пояс: GMT + 4



Вы не можете начинать темы
Вы не можете отвечать на сообщения
Вы не можете редактировать свои сообщения
Вы не можете удалять свои сообщения
Вы не можете голосовать в опросах
Вы не можете прикреплять файлы к сообщениям
Вы не можете скачивать файлы