Прирожденный убийца / Черная катушка / Иллюзия убийства / Dark Reel (Джош Эйсенштадт / Josh Eisenstadt) [2008, США, ужасы, триллер, комедия, BDRemux 1080p] MVO + Original Eng

Ответить на тему
 
Автор Сообщение

user ®

Стаж: 7 лет 7 месяцев

Сообщений: 20008

Пост Пост: #1 от 21-Дек-2014 21:30

[Цитировать]

Прирожденный убийца / Черная катушка / Иллюзия убийства / Dark Reel
Страна: США
Студия: Dark Reel Productions, Specter's Rock Productions
Жанр: ужасы, триллер, комедия
Год выпуска: 2008
Продолжительность: 01:49:08
Перевод: Профессиональный (многоголосый закадровый)
Cубтитры: нет
Оригинальная аудиодорожка: английский
Режиссер: Josh Eisenstadt / Джош Эйсенштадт
В ролях: Лэнс Хенриксен, Дэниэл Уислер, Эдвард Ферлонг, Тиффани Шепис, Рена Риффел, Тейт Ханиок, Александра Холден, Мерседес МакНаб, Брук Лайонс, Мэтт Бушнелл
Описание: Адам, фанат кино, выигрывает конкурс на немую роль в страшном эпосе «Пиратская девка». Подумав, что удача повернулась к нему лицом, Адам прибывает на съемки фильма, где внезапно погибает актриса при тех же обстоятельствах, что и актриса Скарлет Мей в 1958. Когда убийца на свободе, никто из команды не может быть в безопасности и подозрение падает на каждого. Кто же следующий?
Imdb|Кинопоиск|Сэмпл
Тип релиза: BDRemux 1080p
Контейнер: MKV
Видео: MPEG2 Video 1920x1080 23.976fps 24.2 Mbps
Аудио: Русский AC3 / 2 ch / 48.0 KHz / 192 Kbps
Аудио 2: Английский AC3 / 6 ch / 48.0 KHz / 384 Kbps

Цитата:
За предоставленный блюрей спасибо sid34, многоканальная дорожка оказалась дутой по этому поставлена двухканальная от [url=http://***/forum/viewtopic.php?t=3141836]сюда[/url]
MediaInfo
General
Unique ID : 215109349941109929466345205756494902507 (0xA1D48DC841BAE6288D69EBFBA5F474EB)
Complete name : C:\Users\Вика\Desktop\Dark.Reel.2008.Remux.1080.mkv
Format : Matroska
Format version : Version 4 / Version 2
File size : 19.3 GiB
Duration : 1h 49mn
Overall bit rate mode : Variable
Overall bit rate : 25.3 Mbps
Encoded date : UTC 2014-12-18 09:24:44
Writing application : mkvmerge v7.4.0 ('Circles') 64bit built on Dec 12 2014 12:19:56
Writing library : libebml v1.3.0 + libmatroska v1.4.1
DURATION : 01:49:08.000000000
NUMBER_OF_FRAMES : 204625
NUMBER_OF_BYTES : 314304000
_STATISTICS_WRITING_APP : mkvmerge v7.4.0 ('Circles') 64bit built on Dec 12 2014 12:19:56
_STATISTICS_WRITING_DATE_UTC : 2014-12-18 09:24:44
_STATISTICS_TAGS : BPS DURATION NUMBER_OF_FRAMES NUMBER_OF_BYTES
Video
ID : 1
Format : MPEG Video
Format version : Version 2
Format profile : Main@High
Format settings, BVOP : No
Format settings, Matrix : Default
Codec ID : V_MPEG2
Codec ID/Info : MPEG 1 or 2 Video
Duration : 1h 49mn
Bit rate mode : Variable
Bit rate : 24.2 Mbps
Maximum bit rate : 35.0 Mbps
Width : 1 920 pixels
Height : 1 080 pixels
Display aspect ratio : 16:9
Frame rate mode : Constant
Frame rate : 23.976 fps
Standard : NTSC
Color space : YUV
Chroma subsampling : 4:2:0
Bit depth : 8 bits
Scan type : Progressive
Compression mode : Lossy
Bits/(Pixel*Frame) : 0.486
Time code of first frame : 00:00:00:00
Time code source : Group of pictures header
Stream size : 18.4 GiB (96%)
Default : Yes
Forced : No
Color primaries : BT.709
Transfer characteristics : BT.709
Matrix coefficients : BT.709
Audio #1
ID : 2
Format : AC-3
Format/Info : Audio Coding 3
Mode extension : CM (complete main)
Format settings, Endianness : Big
Codec ID : A_AC3
Duration : 1h 49mn
Bit rate mode : Constant
Bit rate : 192 Kbps
Channel(s) : 2 channels
Channel positions : Front: L R
Sampling rate : 48.0 KHz
Bit depth : 16 bits
Compression mode : Lossy
Stream size : 150 MiB (1%)
Title : MVO
Language : Russian
Default : Yes
Forced : No
Audio #2
ID : 3
Format : AC-3
Format/Info : Audio Coding 3
Mode extension : CM (complete main)
Format settings, Endianness : Big
Codec ID : A_AC3
Duration : 1h 49mn
Bit rate mode : Constant
Bit rate : 384 Kbps
Channel(s) : 6 channels
Channel positions : Front: L C R, Side: L R, LFE
Sampling rate : 48.0 KHz
Bit depth : 16 bits
Compression mode : Lossy
Stream size : 300 MiB (2%)
Language : English
Default : No
Forced : No
Скриншоты
Скачать

Скачать торрент!

Как скачивать? · Что такое торрент? · Рейтинг и ограничения

Сайт не распространяет и не хранит электронные версии произведений, а лишь предоставляет доступ к создаваемому пользователями каталогу ссылок на торрент-файлы, которые содержат только списки хеш-сумм

[Профиль] [ЛС]
Показать сообщения:    
Ответить на тему

Текущее время: Сегодня 10:54

Часовой пояс: GMT + 4



Вы не можете начинать темы
Вы не можете отвечать на сообщения
Вы не можете редактировать свои сообщения
Вы не можете удалять свои сообщения
Вы не можете голосовать в опросах
Вы не можете прикреплять файлы к сообщениям
Вы не можете скачивать файлы