Обитель проклятых / Eliza Graves / Stonehearst Asylum (Брэд Андерсон / Brad Anderson) [2014, США, триллер, BDRemux 1080p] [US Transfer] Dub + VO (Zamez) + Sub Eng + Original Eng

Ответить на тему
 
Автор Сообщение

user ®

Стаж: 7 лет 7 месяцев

Сообщений: 20008

Пост Пост: #1 от 21-Дек-2014 21:30

[Цитировать]

Обитель проклятых / Eliza Graves / Stonehearst Asylum
Страна: США
Студия: Icon Productions, Sobini Films
Жанр: триллер
Год выпуска: 2014
Продолжительность: 01:52:40
Перевод 1: Профессиональный (дублированный) Blu-ray RUS
Перевод 2: Одноголосый (закадровый) Zamez
Cубтитры: английские (full, SDH, SDH Colored)
Оригинальная аудиодорожка: английский
Режиссер: Брэд Андерсон / Brad Anderson
В ролях: Кейт Бекинсейл, Джим Стёрджесс, Бен Кингсли, Дэвид Тьюлис, Майкл Кейн, Брендан Глисон, Джейсон Флеминг, Софи Кеннеди Кларк, Шинейд Кьюсак, Гийом Делони
Описание: Молодой медицинский работник Эдвард устраивается работать в психиатрическую лечебницу. Вскоре становится известно об исчезновении одного из лечащих врачей психушки. Эдвард обнаруживает, что его похитили пациенты больницы, а вскоре и вся психушка оказывается захвачена ими…

Тип релиза: BDRemux 1080p
Контейнер: MKV
Видео: AVC,1920x1080,16100 kbps, 23.976 fps
Аудио 1: Russian: DTS-HD Master Audio Russian / 5.1 / 48 kHz / 1826 kbps / 16-bit (DTS Core: 5.1 / 48 kHz / 1509 kbps / 16-bit) |Blu-Ray RUS|
Аудио 2: Russian: 48 kHz, DTS, 3/2 (L,C,R,l,r) + LFE ch, ~1536.00 kbps avg |Zamez|
Аудио 3: English: DTS-HD Master Audio English / 5.1 / 48 kHz / 1903 kbps / 16-bit (DTS Core: 5.1 / 48 kHz / 1509 kbps / 16-bit) |Original|
Чаптеры:есть

MediaInfo
General
Unique ID : 197827464991376770653398728081766128804 (0x94D42F11C553ACC3B9F6687A12F89CA4)
Complete name : D:\рипы\Eliza.Graves.2014.1080p.BluRay.REMUX-Talian-.mkv
Format : Matroska
Format version : Version 2
File size : 16.7 GiB
Duration : 1h 52mn
Overall bit rate mode : Variable
Overall bit rate : 21.2 Mbps
Movie name : Eliza Graves-Talian-
Encoded date : UTC 2014-12-19 21:39:37
Writing application : mkvmerge v5.7.0 ('The Whirlwind') built on Jul 8 2012 20:08:51
Writing library : libebml v1.2.3 + libmatroska v1.3.0
Video
ID : 1
Format : AVC
Format/Info : Advanced Video Codec
Format profile : High@L4.1
Format settings, CABAC : Yes
Format settings, ReFrames : 4 frames
Codec ID : V_MPEG4/ISO/AVC
Duration : 1h 52mn
Bit rate mode : Variable
Bit rate : 16.1 Mbps
Maximum bit rate : 32.0 Mbps
Width : 1 920 pixels
Height : 1 080 pixels
Display aspect ratio : 16:9
Frame rate : 23.976 fps
Standard : NTSC
Color space : YUV
Chroma subsampling : 4:2:0
Bit depth : 8 bits
Scan type : Progressive
Bits/(Pixel*Frame) : 0.323
Stream size : 12.7 GiB (76%)
Title : BDRemux
Language : English
Default : Yes
Forced : No
Color primaries : BT.709-5, BT.1361, IEC 61966-2-4, SMPTE RP177
Transfer characteristics : BT.709-5, BT.1361
Matrix coefficients : BT.709-5, BT.1361, IEC 61966-2-4 709, SMPTE RP177
Audio #1
ID : 2
Format : DTS
Format/Info : Digital Theater Systems
Format profile : MA / Core
Codec ID : A_DTS
Duration : 1h 52mn
Bit rate mode : Variable
Bit rate : 1 630 Kbps / 1 510 Kbps
Channel(s) : 6 channels
Channel positions : Front: L C R, Side: L R, LFE
Sampling rate : 48.0 KHz
Bit depth : 16 bits
Compression mode : Lossless / Lossy
Title : DUB-Blu-ray RUS
Language : Russian
Default : Yes
Forced : No
Audio #2
ID : 3
Format : DTS
Format/Info : Digital Theater Systems
Codec ID : A_DTS
Duration : 1h 52mn
Bit rate mode : Constant
Bit rate : 1 510 Kbps
Channel(s) : 6 channels
Channel positions : Front: L C R, Side: L R, LFE
Sampling rate : 48.0 KHz
Bit depth : 24 bits
Compression mode : Lossy
Stream size : 1.19 GiB (7%)
Title : VO-zamez
Language : Russian
Default : No
Forced : No
Audio #3
ID : 4
Format : DTS
Format/Info : Digital Theater Systems
Format profile : MA / Core
Codec ID : A_DTS
Duration : 1h 52mn
Bit rate mode : Variable
Bit rate : 1 561 Kbps / 1 510 Kbps
Channel(s) : 6 channels
Channel positions : Front: L C R, Side: L R, LFE
Sampling rate : 48.0 KHz
Bit depth : 16 bits
Compression mode : Lossless / Lossy
Title : Original
Language : English
Default : No
Forced : No
Text #1
ID : 5
Format : UTF-8
Codec ID : S_TEXT/UTF8
Codec ID/Info : UTF-8 Plain Text
Title : Sub-full
Language : English
Default : No
Forced : No
Text #2
ID : 6
Format : UTF-8
Codec ID : S_TEXT/UTF8
Codec ID/Info : UTF-8 Plain Text
Title : Sub-SDH
Language : English
Default : No
Forced : No
Text #3
ID : 7
Format : UTF-8
Codec ID : S_TEXT/UTF8
Codec ID/Info : UTF-8 Plain Text
Title : Sub-SDH Colored
Language : English
Default : No
Forced : No
Menu
00:00:00.000 : Chapter 01
00:09:14.887 : Chapter 02
00:17:51.361 : Chapter 03
00:27:37.906 : Chapter 04
00:37:54.730 : Chapter 05
00:45:40.696 : Chapter 06
00:54:59.921 : Chapter 07
01:03:44.028 : Chapter 08
01:12:48.405 : Chapter 09
01:22:12.427 : Chapter 10
01:30:24.252 : Chapter 11
01:48:23.121 : Chapter 12
Сравнение исходников
BD USA vs BD RUS

Скриншоты
Скачать

Скачать торрент!

Как скачивать? · Что такое торрент? · Рейтинг и ограничения

Сайт не распространяет и не хранит электронные версии произведений, а лишь предоставляет доступ к создаваемому пользователями каталогу ссылок на торрент-файлы, которые содержат только списки хеш-сумм

[Профиль] [ЛС]
Показать сообщения:    
Ответить на тему

Текущее время: Сегодня 02:19

Часовой пояс: GMT + 4



Вы не можете начинать темы
Вы не можете отвечать на сообщения
Вы не можете редактировать свои сообщения
Вы не можете удалять свои сообщения
Вы не можете голосовать в опросах
Вы не можете прикреплять файлы к сообщениям
Вы не можете скачивать файлы