Безымянный / Мистерия / Gumnaam (Раджа Навате / Raja Nawathe) [1965, Индия, Триллер, драма, детектив, DVDRip-AVC] VO (Юлия Семыкина) + Sub Rus (на песни)

Ответить на тему
 
Автор Сообщение

user ®

Стаж: 12 лет

Сообщений: 15092

Пост Пост: #1 от 21-Дек-2014 10:15

[Цитировать]

Безымянный / Мистерия / Gumnaam
Страна: Индия
Жанр: Триллер, драма, детектив
Год выпуска: 1965
Продолжительность: 02:28:41
Перевод: Одноголосый закадровый Юлия Семыкина
Cубтитры: русские (только на тексты песен)
Режиссер: Раджа Навате / Raja Nawathe
В ролях: Нанда, Манодж Кумар, Пран, Хелен, Мехмуд, Дхумал, Мадан Пури, Тарун Босе, Манмохан, Наина, Лакшми Чхая, Хиралал, Базид Кхан, Ратна
Описание: В ночном клубе, семь человек (пятеро мужчин и две женщины) узнают, что они выиграли приз – поездку за границу на 2 недели. Чартерный самолет, перевозивший счастливчиков, по дороге сломался. В итоге, наши герои оказываются на небольшом острове со вторым пилотом. В поисках убежища компания из восьми человек попадает в особняк, где встречаются с весьма интересным субъектом – дворецким, который их уже ожидал и все о них знал. Вроде все прекрасно: море, солнце, никаких забот. И тут находят дневник, где сказано, что каждого из присутствующих ждет смерть. И смерть приходит. Начинаются убийства… Но кто же убийца?..
Доп. информация: Релиз
Озвучка: Юлия Семыкина (Спасибо!)
Материалы larisa_k (Спасибо!)
Перевод субтитров: innnna (Спасибо!)
Сведение аудио: керелис (Спасибо!)
Сэмпл: http://multi-up.com/1021741
Качество видео: DVDRip-AVC
Формат видео: MKV
Видео: 720x560 (1.286:1), 29.466 fps, AVC, ~ 1664 Kbps, 0.140 bits/pixel
Аудио: Русский, 48 KHz, АС3, 2 ch, 192 Kbps
MediaInfo
General
Complete name : F:\Bezymyannyi.1965.DVDRip.x264.BWTorrents.mkv
Format : Matroska
File size : 1.97 GiB
Duration : 2h 28mn
Overall bit rate : 1 894 Kbps
Encoded date : UTC 2014-12-02 05:33:15
Writing application : mkvmerge v5.4.0 ('Piper') built on Mar 10 2012 13:34:39
Writing library : libebml v1.2.3 + libmatroska v1.3.0
Video
ID : 1
Format : AVC
Format/Info : Advanced Video Codec
Format profile : High@L3.1
Format settings, CABAC : Yes
Format settings, ReFrames : 8 frames
Muxing mode : Container profile=Unknown@3.1
Codec ID : V_MPEG4/ISO/AVC
Duration : 2h 31mn
Bit rate : 1 664 Kbps
Nominal bit rate : 1 734 Kbps
Width : 720 pixels
Height : 560 pixels
Display aspect ratio : 1.286
Frame rate mode : Variable
Frame rate : 29.466 fps
Resolution : 24 bits
Colorimetry : 4:2:0
Scan type : Progressive
Bits/(Pixel*Frame) : 0.140
Stream size : 1.76 GiB (89%)
Writing library : x264 core 112
Encoding settings : cabac=1 / ref=8 / deblock=1:0:0 / analyse=0x3:0x113 / me=umh / subme=7 / psy=1 / psy_rd=1.00:0.00 / mixed_ref=1 / me_range=16 / chroma_me=1 / trellis=1 / 8x8dct=1 / cqm=0 / deadzone=21,11 / fast_pskip=1 / chroma_qp_offset=-2 / threads=3 / sliced_threads=0 / nr=0 / decimate=1 / interlaced=0 / constrained_intra=0 / bframes=3 / b_pyramid=2 / b_adapt=2 / b_bias=0 / direct=1 / weightb=1 / open_gop=0 / weightp=2 / keyint=300 / keyint_min=29 / scenecut=40 / intra_refresh=0 / rc_lookahead=50 / rc=2pass / mbtree=1 / bitrate=1734 / ratetol=1.0 / qcomp=0.60 / qpmin=3 / qpmax=51 / qpstep=4 / cplxblur=20.0 / qblur=0.5 / ip_ratio=1.40 / aq=1:1.00
Audio
ID : 2
Format : AC-3
Format/Info : Audio Coding 3
Codec ID : A_AC3
Duration : 2h 28mn
Bit rate mode : Constant
Bit rate : 192 Kbps
Channel(s) : 2 channels
Channel positions : L R
Sampling rate : 48.0 KHz
Stream size : 204 MiB (10%)
Language : Russian
Text
ID : 3
Format : UTF-8
Codec ID : S_TEXT/UTF8
Codec ID/Info : UTF-8 Plain Text
Language : Russian
Menu
00:00:00.000 : en:Chapter 1
00:00:17.083 : en:Chapter 2
00:05:56.923 : en:Chapter 3
00:11:11.237 : en:Chapter 4
00:14:47.469 : en:Chapter 5
00:18:34.179 : en:Chapter 6
00:23:41.486 : en:Chapter 7
00:34:54.659 : en:Chapter 8
00:42:05.089 : en:Chapter 9
00:43:59.203 : en:Chapter 10
00:48:23.467 : en:Chapter 11
00:52:56.239 : en:Chapter 12
00:53:54.798 : en:Chapter 13
00:54:04.307 : en:Chapter 14
00:55:54.417 : en:Chapter 15
01:00:50.213 : en:Chapter 16
01:05:35.998 : en:Chapter 17
01:06:32.054 : en:Chapter 18
01:07:49.632 : en:Chapter 19
01:13:21.463 : en:Chapter 20
01:17:16.198 : en:Chapter 21
01:23:02.544 : en:Chapter 22
01:23:22.731 : en:Chapter 23
01:27:18.930 : en:Chapter 24
01:29:05.537 : en:Chapter 25
01:33:19.791 : en:Chapter 26
01:37:50.561 : en:Chapter 27
01:45:05.496 : en:Chapter 28
01:47:31.642 : en:Chapter 29
01:48:34.705 : en:Chapter 30
01:51:37.387 : en:Chapter 31
01:54:27.057 : en:Chapter 32
01:58:00.770 : en:Chapter 33
02:04:13.643 : en:Chapter 34
02:07:25.835 : en:Chapter 35
02:14:44.807 : en:Chapter 36
02:22:12.245 : en:Chapter 37
Скриншоты
Скачать

Скачать торрент! Безымянный / Мистерия / Gumnaam (Раджа Навате / Raja Nawathe) [1965, Индия, Триллер, драма, детектив, DVDRip-AVC] VO (Юлия Семыкина) + Sub Rus (на песни)

Как скачивать? · Что такое торрент? · Рейтинг и ограничения

Сайт не распространяет и не хранит электронные версии произведений, а лишь предоставляет доступ к создаваемому пользователями каталогу ссылок на торрент-файлы, которые содержат только списки хеш-сумм

[Профиль] [ЛС]
Показать сообщения:    
Ответить на тему

Текущее время: Сегодня 05:31

Часовой пояс: GMT + 4



Вы не можете начинать темы
Вы не можете отвечать на сообщения
Вы не можете редактировать свои сообщения
Вы не можете удалять свои сообщения
Вы не можете голосовать в опросах
Вы не можете прикреплять файлы к сообщениям
Вы не можете скачивать файлы