Разоблачение / The Xpose (Анант Махадеван / Anant Mahadevan) [2014, Индия, Триллер, детектив, HDTVRip-AVC] DVO + Sub Rus

Ответить на тему
 
Автор Сообщение

user ®

Стаж: 13 лет

Сообщений: 15070

Пост Пост: #1 от 21-Дек-2014 00:45

[Цитировать]

Разоблачение / The Xpose***Некоторые вещи лучше оставлять недосказанными***- Страна: Индия
Жанр: Триллер, детектив
Год выпуска: 2014
Продолжительность: 01:53:07-Перевод: Любительский (двухголосый закадровый) - DeadSno & den904
Cубтитры: Есть (только песни)--Режиссер: Анант Махадеван / Anant Mahadevan-В ролях: Химеш Решаммия, Ё Ё Хони Сингх, Сонали Раут, Ирфан Кхан, Зоя Афроз, Раджеш Шарма, Адиль Хуссэйн, Анант Махадеван, Бхарат Дабхолкар, Джесси Рандхава, Накул, Каника Данг--Описание: 1968 год. Бомбей. В огромном и шикарном дворце в самом разгаре идёт вечеринка, посвященная награждению в кинематографе. Здесь гуляют самые популярные секс-символы и звёзды шестидесятых. Внезапно, сообщают о падении с террасы дворца скандальной актрисы - Зары Питер Фернандес, что подвергает в шок всех присутствующих гостей. Начинается расследование. За него берётся Рави Кумар, бывший полицейский, а ныне - суперзвезда южных фильмов. Но как говорится, бывших копов не бывает. Было ли это убийством или всё-таки простым несчастным случаем? Разоблачение ждёт каждого, который хоть как-то повлиял на эту историю...-- --Качество видео: HDTVRip
Формат видео: MKV-Видео: AVC, 1280x544, 1799 kbps, 29.970 fps
Аудио: AC3, 48 kHz, 256 kbps, 6 ch
Субтитры: hardsub (вшитые в картинку)-- --Релиз-группа:
Творческая озвучка: DeadSno & den904 (спасибо!)
Перевод на русский язык: Honey&Haseena (спасибо!)-- -
-
MI
Общее
Уникальный идентификатор : 246982115696022285057511870379492703734 (0xB9CF0675C82677038930DEA86018FDF6)
Полное имя : G:\Razoblacheniye.2014.HDTVRip.AVC.Kolobok.mkv
Формат : Matroska
Версия формата : Version 4 / Version 2
Размер файла : 1,62 Гбайт
Продолжительность : 1 ч. 53 м.
Общий поток : 2057 Кбит/сек
Название фильма : The Xpose (2014) DVDRip 720p x264 DD 5.1--prisak~~{HKRG}
Дата кодирования : UTC 2014-12-17 11:09:07
Программа кодирования : mkvmerge v7.2.0 ('On Every Street') 64bit built on Sep 13 2014 15:52:10
Библиотека кодирования : libebml v1.3.0 + libmatroska v1.4.1
DURATION : 01:50:08.997000000
NUMBER_OF_FRAMES : 216
NUMBER_OF_BYTES : 11420
_STATISTICS_WRITING_APP : mkvmerge v7.2.0 ('On Every Street') 64bit built on Sep 13 2014 15:52:10
_STATISTICS_WRITING_DATE_UTC : 2014-12-17 11:09:07
_STATISTICS_TAGS : BPS DURATION NUMBER_OF_FRAMES NUMBER_OF_BYTES
Видео
Идентификатор : 1
Формат : AVC
Формат/Информация : Advanced Video Codec
Профиль формата : High@L4.1
Параметр CABAC формата : Да
Параметр ReFrames формата : 4 кадра
Идентификатор кодека : V_MPEG4/ISO/AVC
Продолжительность : 1 ч. 53 м.
Битрейт : 1799 Кбит/сек
Ширина : 1280 пикселей
Высота : 544 пикселя
Соотношение сторон : 2,35:1
Режим частоты кадров : Постоянный
Частота кадров : 29,970 кадров/сек
Цветовое пространство : YUV
Субдискретизация насыщенности : 4:2:0
Битовая глубина : 8 бит
Тип развёртки : Прогрессивная
Бит/(Пиксели*Кадры) : 0.086
Размер потока : 1,39 Гбайт (86%)
Заголовок : The Xpose (2014) DVDRip 720p x264 DD 5.1--prisak~~{HKRG}
Библиотека кодирования : x264 core 133 r2334 a3ac64b
Настройки программы : cabac=1 / ref=4 / deblock=1:-3:-3 / analyse=0x3:0x113 / me=umh / subme=11 / psy=1 / psy_rd=1.00:0.00 / mixed_ref=1 / me_range=32 / chroma_me=1 / trellis=2 / 8x8dct=1 / cqm=0 / deadzone=21,11 / fast_pskip=1 / chroma_qp_offset=-2 / threads=18 / lookahead_threads=1 / sliced_threads=0 / nr=0 / decimate=1 / interlaced=0 / bluray_compat=0 / constrained_intra=0 / bframes=5 / b_pyramid=2 / b_adapt=1 / b_bias=0 / direct=3 / weightb=1 / open_gop=0 / weightp=2 / keyint=250 / keyint_min=25 / scenecut=40 / intra_refresh=0 / rc_lookahead=80 / rc=2pass / mbtree=1 / bitrate=1799 / ratetol=1.0 / qcomp=0.60 / qpmin=10 / qpmax=51 / qpstep=4 / cplxblur=20.0 / qblur=0.5 / ip_ratio=1.40 / aq=2:1.00
Язык : Hindi
Default : Да
Forced : Нет
Аудио
Идентификатор : 2
Формат : AC-3
Формат/Информация : Audio Coding 3
Расширение режима : CM (complete main)
Параметр Endianness формата : Big
Идентификатор кодека : A_AC3
Продолжительность : 1 ч. 53 м.
Вид битрейта : Постоянный
Битрейт : 256 Кбит/сек
Каналы : 6 каналов
Расположение каналов : Front: L C R, Side: L R, LFE
Частота : 48,0 КГц
Битовая глубина : 16 бит
Метод сжатия : С потерями
Размер потока : 207 Мбайт (12%)
Default : Да
Forced : Нет
Текст
Идентификатор : 3
Формат : UTF-8
Идентификатор кодека : S_TEXT/UTF8
Идентификатор кодека/Информация : UTF-8 Plain Text
Default : Да
Forced : Нет

-
Скриншот с названием фильма
-
Скриншоты
-
-
Скачать

Скачать торрент! Разоблачение / The Xpose (Анант Махадеван / Anant Mahadevan) [2014, Индия, Триллер, детектив, HDTVRip-AVC] DVO + Sub Rus

Как скачивать? · Что такое торрент? · Рейтинг и ограничения

Сайт не распространяет и не хранит электронные версии произведений, а лишь предоставляет доступ к создаваемому пользователями каталогу ссылок на торрент-файлы, которые содержат только списки хеш-сумм

[Профиль] [ЛС]
Показать сообщения:    
Ответить на тему

Текущее время: Сегодня 15:52

Часовой пояс: GMT + 4



Вы не можете начинать темы
Вы не можете отвечать на сообщения
Вы не можете редактировать свои сообщения
Вы не можете удалять свои сообщения
Вы не можете голосовать в опросах
Вы не можете прикреплять файлы к сообщениям
Вы не можете скачивать файлы