Кровавый ледник / Blutgletscher / Blood Glacier (Марвин Крен / Marvin Kren) [2013, Австрия, ужасы / фантастика, WEB-DL 1080p] VO + Original Ger

Ответить на тему
 
Автор Сообщение

user ®

Стаж: 7 лет 7 месяцев

Сообщений: 20008

Пост Пост: #1 от 21-Дек-2014 00:45

[Цитировать]

Кровавый ледник / Blutgletscher / Blood Glacier
Страна: Австрия
Студия: Allegro Film
Жанр: ужасы / фантастика
Год выпуска: 2013
Продолжительность: 1:37:28
Перевод: Одноголосый закадровый русский от den904
Перевод 2: Профессиональный (дублированный) английский
Cубтитры: нет
Оригинальная аудиодорожка: немецкий
Режиссер: Марвин Крен / Marvin Kren
В ролях: Герхард Либманн, Эдита Маловчич, Бригитта Крен, Сантос, Хилле Бизелер, Петер Кнаак, Феликс Ромер, Вольфганг Пампель, Мурасан Муслу, Михаэль Фуйт и др..
Описание: Леденящий душу хоррор в лучших традициях фильма "Нечто", по праву заслуживший целый ряд призов на кинофестивалях в 2014 году.
События фильма развернутся на фоне величественных пейзажей Австрийских Альп, где расположилась климатическая станция, на которой со своими коллегами работает техник Янек. Накануне приезда туда новой группы ученых, персонал станции сталкивается с необычным явлением - из ледника начинает сочиться странная жидкость, под воздействием которой все животные начинают мутировать и нападать на людей. Станция превращается в своеобразную крепость для выживших, и все бы хорошо, но позже выясняется, что и люди так же подверглись заражению...

Сэмпл: http://multi-up.com/1021131
Тип релиза: WEB-DL 1080p
Контейнер: MKV
Видео: AVC, NTSC, 1920x802, 2,40:1, 3420 kbps, 23,976 fps (версия с англоязычным названием и финальными титрами)
Аудио: russian, DD Ac3 6 ch, 48000 Hz, 448 kbps
Аудио 2: german, DD Ac3 6 ch, 48000 Hz, 448 kbps
Аудио 3: english, DD Ac3 6 ch, 48000 Hz, 384 kbps
MediaInfo
Общее
Уникальный идентификатор : 249036937192908238346326613737969814779 (0xBB5AC4FB51C7B78C8757351D585C0CFB)
Полное имя : F:\MKV_Temp\Demux\Blood.Glacier.1080p.WEB-DL.H264.mkv
Формат : Matroska
Версия формата : Version 4 / Version 2
Размер файла : 3,48 Гбайт
Продолжительность : 1 ч. 37 м.
Общий поток : 5118 Кбит/сек
Дата кодирования : UTC 2014-12-17 21:35:54
Программа кодирования : mkvmerge v7.3.0 ('Nouages') 64bit built on Oct 22 2014 18:53:34
Библиотека кодирования : libebml v1.3.0 + libmatroska v1.4.1
Обложка : Yes / Yes / Yes / Yes
DURATION : 01:37:28.192000000
NUMBER_OF_FRAMES : 182756
NUMBER_OF_BYTES : 327498752
_STATISTICS_WRITING_APP : mkvmerge v7.3.0 ('Nouages') 64bit built on Oct 22 2014 18:53:34
_STATISTICS_WRITING_DATE_UTC : 2014-12-17 21:35:54
_STATISTICS_TAGS : BPS DURATION NUMBER_OF_FRAMES NUMBER_OF_BYTES
Видео
Идентификатор : 1
Формат : AVC
Формат/Информация : Advanced Video Codec
Профиль формата : High@L4.0
Параметр CABAC формата : Да
Параметр ReFrames формата : 5 кадров
Идентификатор кодека : V_MPEG4/ISO/AVC
Продолжительность : 1 ч. 37 м.
Битрейт : 3736 Кбит/сек
Ширина : 1920 пикселей
Высота : 802 пикселя
Соотношение сторон : 2,40:1
Режим частоты кадров : Постоянный
Частота кадров : 23,976 кадра/сек
Цветовое пространство : YUV
Субдискретизация насыщенности : 4:2:0
Битовая глубина : 8 бит
Тип развёртки : Прогрессивная
Бит/(Пиксели*Кадры) : 0.101
Размер потока : 2,54 Гбайт (73%)
Язык : English
Default : Да
Forced : Нет
Основные цвета : BT.709
Характеристики трансфера : BT.709
Коэффициенты матрицы : BT.709
Аудио #1
Идентификатор : 2
Формат : AC-3
Формат/Информация : Audio Coding 3
Расширение режима : CM (complete main)
Параметр Endianness формата : Big
Идентификатор кодека : A_AC3
Продолжительность : 1 ч. 37 м.
Вид битрейта : Постоянный
Битрейт : 448 Кбит/сек
Каналы : 6 каналов
Расположение каналов : Front: L C R, Side: L R, LFE
Частота : 48,0 КГц
Битовая глубина : 16 бит
Метод сжатия : С потерями
Размер потока : 312 Мбайт (9%)
Заголовок : den904
Язык : Russian
Default : Да
Forced : Нет
Аудио #2
Идентификатор : 3
Формат : AC-3
Формат/Информация : Audio Coding 3
Расширение режима : CM (complete main)
Параметр Endianness формата : Big
Идентификатор кодека : A_AC3
Продолжительность : 1 ч. 37 м.
Вид битрейта : Постоянный
Битрейт : 448 Кбит/сек
Каналы : 6 каналов
Расположение каналов : Front: L C R, Side: L R, LFE
Частота : 48,0 КГц
Битовая глубина : 16 бит
Метод сжатия : С потерями
Размер потока : 312 Мбайт (9%)
Заголовок : original
Язык : German
Default : Нет
Forced : Нет
Аудио #3
Идентификатор : 4
Формат : AC-3
Формат/Информация : Audio Coding 3
Расширение режима : CM (complete main)
Параметр Endianness формата : Big
Идентификатор кодека : A_AC3
Продолжительность : 1 ч. 37 м.
Вид битрейта : Постоянный
Битрейт : 384 Кбит/сек
Каналы : 6 каналов
Расположение каналов : Front: L C R, Side: L R, LFE
Частота : 48,0 КГц
Битовая глубина : 16 бит
Метод сжатия : С потерями
Размер потока : 268 Мбайт (8%)
Заголовок : dub
Язык : English
Default : Нет
Forced : Нет
Скриншоты
Скачать

Скачать торрент!

Как скачивать? · Что такое торрент? · Рейтинг и ограничения

Сайт не распространяет и не хранит электронные версии произведений, а лишь предоставляет доступ к создаваемому пользователями каталогу ссылок на торрент-файлы, которые содержат только списки хеш-сумм

[Профиль] [ЛС]
Показать сообщения:    
Ответить на тему

Текущее время: Сегодня 08:23

Часовой пояс: GMT + 4



Вы не можете начинать темы
Вы не можете отвечать на сообщения
Вы не можете редактировать свои сообщения
Вы не можете удалять свои сообщения
Вы не можете голосовать в опросах
Вы не можете прикреплять файлы к сообщениям
Вы не можете скачивать файлы