Черные метки / The Art of the Steal (Джонатан Собол / Jonathan Sobol) [2013, Канада, США, комедия, криминал, BDRemux 1080p] MVO (R5) + VO (Белов) + Original (Eng) + Sub (Rus, Eng)

Ответить на тему
 
Автор Сообщение

user ®

Стаж: 7 лет 7 месяцев

Сообщений: 20008

Пост Пост: #1 от 21-Дек-2014 00:45

[Цитировать]

Черные метки / The Art of the Steal

-
-Страна: Канада, США
Студия: Darius Films Inc., Entertainment One, Sony Pictures, The Weinstein Company LLC
Жанр: комедия, криминал
Год выпуска: 2013
Продолжительность: 01:30:14--Перевод 1: Профессиональный (многоголосый закадровый) R5
Перевод 2: Одноголосый закадровый В. Белов
Cубтитры: русские (Janetta), английские SDH
Оригинальная аудиодорожка: английский--Режиссер: Джонатан Собол / Jonathan Sobol
В ролях: Курт Рассел, Джей Барушель, Мэтт Диллон, Крис Диамантополос, Кеннет Уэлш, Джейсон Джонс, Теренс Стэмп, Кэтрин Уинник, Девон Бостик, Эль Даунс--Описание: Фильм рассказывает о байкере-сорвиголове, специализирующемся на краже произведений искусства. Он уже было собрался завязать с преступным прошлым, но все-таки не находит в себе силы отказаться от осуществления еще одной очень заманчивой кражи вместе со своим неблагонадежным братцем. Все в итоге идет наперекосяк, поскольку оказывается, что у каждого из братьев свой план.--imdb | kinopoisk | Сэмпл--Тип релиза: BDRemux 1080p [The Art of the Steal 2013 Blu-ray 1080p AVC DTS HD MA 5.1-HDWinG]
Контейнер: MKV
Видео: MPEG-4 AVC / 19758 kbps / 1920x1080 / 23,976 fps / 16:9 / High Profile 4.1
Аудио 1: Russian AC3 / 5.1 / 48 kHz / 384 kbps / 16 bits |MVO, R5|
Аудио 2: Russian DTS-HD Master Audio / 5.1 / 48 kHz / 3624 kbps / 24 bits (DTS Core: 5.1 / 48 kHz / 1509 kbps / 24 bits) |В. Белов|
Аудио 3: English DTS-HD Master Audio / 5.1 / 48 kHz / 3528 kbps / 24 bits (DTS Core: 5.1 / 48 kHz / 1509 kbps / 24 bits) |original|
Аудио 4: English AC3 / 2.0 / 48 kHz / 192 kbps / 16 bits |Commentary|
Формат субтитров: softsub [SRT]

MediaInfo
Общее
Уникальный идентификатор                 : 203304724686937938601694214160037005190 (0x98F310D26F99F8BD910DC7E460114786)
Полное имя                               : G:\HD\Черные метки.2013.Blu-Ray.Remux.(1080p)_arxivariys.mkv
Формат                                   : Matroska
Версия формата                           : Version 4 / Version 2
Размер файла                             : 19,2 Гбайт
Продолжительность                        : 1 ч. 30 м.
Режим общего битрейта                    : Переменный
Общий поток                              : 30,4 Мбит/сек
Дата кодирования                         : UTC 2014-12-14 19:29:15
Программа кодирования                    : mkvmerge v7.4.0 ('Circles') 64bit built on Dec 12 2014 12:19:56
Библиотека кодирования                   : libebml v1.3.0 + libmatroska v1.4.1
Attachements                             : poster.jpg
Видео
Идентификатор                            : 1
Формат                                   : AVC
Формат/Информация                        : Advanced Video Codec
Профиль формата                          : High@L4.1
Параметр CABAC формата                   : Да
Параметр ReFrames формата                : 2 кадра
Идентификатор кодека                     : V_MPEG4/ISO/AVC
Продолжительность                        : 1 ч. 30 м.
Вид битрейта                             : Переменный
Ширина                                   : 1920 пикселей
Высота                                   : 1080 пикселей
Соотношение сторон                       : 16:9
Режим частоты кадров                     : Постоянный
Частота кадров                           : 23,976 кадра/сек
Цветовое пространство                    : YUV
Субдискретизация насыщенности            : 4:2:0
Битовая глубина                          : 8 бит
Тип развёртки                            : Прогрессивная
Default                                  : Да
Forced                                   : Нет
Аудио #1
Идентификатор                            : 2
Формат                                   : AC-3
Формат/Информация                        : Audio Coding 3
Расширение режима                        : CM (complete main)
Параметр Endianness формата              : Big
Идентификатор кодека                     : A_AC3
Продолжительность                        : 1 ч. 30 м.
Вид битрейта                             : Постоянный
Битрейт                                  : 384 Кбит/сек
Каналы                                   : 6 каналов
Расположение каналов                     : Front: L C R, Side: L R, LFE
Частота                                  : 48,0 КГц
Битовая глубина                          : 16 бит
Метод сжатия                             : С потерями
Размер потока                            : 248 Мбайт (1%)
Заголовок                                : MVO, R5
Язык                                     : Russian
Default                                  : Нет
Forced                                   : Нет
Аудио #2
Идентификатор                            : 3
Формат                                   : DTS
Формат/Информация                        : Digital Theater Systems
Профиль формата                          : MA / Core
Режим                                    : 16
Параметр Endianness формата              : Big
Идентификатор кодека                     : A_DTS
Продолжительность                        : 1 ч. 30 м.
Вид битрейта                             : Переменный
Битрейт                                  : Неизвестно / 1509 Кбит/сек
Каналы                                   : 6 каналов
Расположение каналов                     : Front: L C R, Side: L R, LFE
Частота                                  : 48,0 КГц
Битовая глубина                          : 24 бит
Метод сжатия                             : Без потерь / Lossy
Заголовок                                : В. Белов
Язык                                     : Russian
Default                                  : Да
Forced                                   : Нет
Аудио #3
Идентификатор                            : 4
Формат                                   : DTS
Формат/Информация                        : Digital Theater Systems
Профиль формата                          : MA / Core
Режим                                    : 16
Параметр Endianness формата              : Big
Идентификатор кодека                     : A_DTS
Продолжительность                        : 1 ч. 30 м.
Вид битрейта                             : Переменный
Битрейт                                  : Неизвестно / 1509 Кбит/сек
Каналы                                   : 6 каналов
Расположение каналов                     : Front: L C R, Side: L R, LFE
Частота                                  : 48,0 КГц
Битовая глубина                          : 24 бит
Метод сжатия                             : Без потерь / Lossy
Язык                                     : English
Default                                  : Нет
Forced                                   : Нет
Аудио #4
Идентификатор                            : 5
Формат                                   : AC-3
Формат/Информация                        : Audio Coding 3
Расширение режима                        : CM (complete main)
Параметр Endianness формата              : Big
Идентификатор кодека                     : A_AC3
Продолжительность                        : 1 ч. 30 м.
Вид битрейта                             : Постоянный
Битрейт                                  : 192 Кбит/сек
Каналы                                   : 2 канала
Расположение каналов                     : Front: L R
Частота                                  : 48,0 КГц
Битовая глубина                          : 16 бит
Метод сжатия                             : С потерями
Размер потока                            : 124 Мбайт (1%)
Заголовок                                : Commentary
Язык                                     : English
Default                                  : Нет
Forced                                   : Нет
Текст #1
Идентификатор                            : 6
Формат                                   : UTF-8
Идентификатор кодека                     : S_TEXT/UTF8
Идентификатор кодека/Информация          : UTF-8 Plain Text
Заголовок                                : Janetta
Язык                                     : Russian
Default                                  : Нет
Forced                                   : Нет
Текст #2
Идентификатор                            : 7
Формат                                   : UTF-8
Идентификатор кодека                     : S_TEXT/UTF8
Идентификатор кодека/Информация          : UTF-8 Plain Text
Заголовок                                : SDH
Язык                                     : English
Default                                  : Нет
Forced                                   : Нет
Меню
00:00:00.000                             : :Chapter 01
00:05:06.347                             : :Chapter 02
00:10:32.256                             : :Chapter 03
00:17:03.480                             : :Chapter 04
00:21:52.352                             : :Chapter 05
00:27:33.068                             : :Chapter 06
00:33:23.793                             : :Chapter 07
00:41:40.539                             : :Chapter 08
00:46:21.528                             : :Chapter 09
00:50:57.429                             : :Chapter 10
00:56:38.728                             : :Chapter 11
01:02:27.827                             : :Chapter 12
01:07:25.374                             : :Chapter 13
01:12:30.179                             : :Chapter 14
01:18:13.897                             : :Chapter 15
01:23:54.070                             : :Chapter 16
Скриншоты Дополнительно
Цитата:
Дорожка №1 взята с [url=http://***/forum/viewtopic.php?t=4827103]этой раздачи[/url] thx: vlaa8
Цитата:
Дорожка №2 получена наложением чистого голоса на центр декодированного DTS-HD MA.
Скачать

Скачать торрент!

Как скачивать? · Что такое торрент? · Рейтинг и ограничения

Сайт не распространяет и не хранит электронные версии произведений, а лишь предоставляет доступ к создаваемому пользователями каталогу ссылок на торрент-файлы, которые содержат только списки хеш-сумм

[Профиль] [ЛС]
Показать сообщения:    
Ответить на тему

Текущее время: Сегодня 23:15

Часовой пояс: GMT + 4



Вы не можете начинать темы
Вы не можете отвечать на сообщения
Вы не можете редактировать свои сообщения
Вы не можете удалять свои сообщения
Вы не можете голосовать в опросах
Вы не можете прикреплять файлы к сообщениям
Вы не можете скачивать файлы