Достань меня, если сможешь / Reach Me (Джон Херцфелд / John Herzfeld) [2014, США, драма, BDRip 720p] DVO + VO + Sub Eng + Original Eng

Ответить на тему
 
Автор Сообщение

user ®

Стаж: 7 лет 7 месяцев

Сообщений: 20008

Пост Пост: #1 от 21-Дек-2014 00:45

[Цитировать]

Достань меня, если сможешь / Reach Me
Страна: США
Студия: Seraphim Films Inc. / Windy Hill Pictures
Жанр: драма
Год выпуска: 2014
Продолжительность: 01:32:14
Перевод: Любительский (двухголосый закадровый) Пиратская Студия
Перевод 2: Одноголосый закадровый [PashaUp]
Cубтитры: английские
Оригинальная аудиодорожка: английский
Режиссер: Джон Херцфелд / John Herzfeld
В ролях: Лорен Кохэн, Кира Седжвик, Томас Джейн, Кевин Коннолли, Том Сайзмор, Нелли, Омари Хардвик, Дэвид О’Хара, Келси Грэммер, Терри Крюс
Описание: Драма развивается вокруг группы людей, каждый из которых как-то связан с книгой по самосовершенствованию, а ее автором является ведущий затворнический образ жизни бывший тренер футбольной команды.

Сэмпл: http://multi-up.com/1021362
Тип релиза: BDRip 720p
Контейнер: MKV
Видео: MPEG4 Video (H264) 1280x532 (243:101) 23.976fps 9 865 Kbps
Аудио: Русский AC-3 / 2 ch / 48.0 KHz / 448 Kbps |Пиратская Студия
Аудио 2: Русский AC-3 / 6 ch / 48.0 KHz / 448 Kbps |PashaUp
Аудио 3: Английский AC-3 / 6 ch / 48.0 KHz / 640 Kbps |Original
Аудио 4: Английский AC-3 / 2 ch / 48.0 KHz / 224 Kbps |Commentary
Формат субтитров: softsub (SRT)

MediaInfo
General
Unique ID : 252711605719001406178690899522957397957 (0xBE1E7C20C1EECB7F95E0D94A8FA4CFC5)
Complete name : C:\Users\Вика\Desktop\Reach.Me.2014.720p.BDRip.x264.mkv
Format : Matroska
Format version : Version 4 / Version 2
File size : 7.64 GiB
Duration : 1h 32mn
Overall bit rate : 11.9 Mbps
Encoded date : UTC 2014-12-19 08:51:50
Writing application : mkvmerge v7.4.0 ('Circles') 64bit built on Dec 12 2014 12:19:56
Writing library : libebml v1.3.0 + libmatroska v1.4.1
_STATISTICS_WRITING_APP : mkvmerge v7.4.0 ('Circles') 64bit built on Dec 12 2014 12:19:56
_STATISTICS_WRITING_DATE_UTC : 2014-12-19 08:51:50
_STATISTICS_TAGS : BPS DURATION NUMBER_OF_FRAMES NUMBER_OF_BYTES
DURATION : 01:32:13.600000000
NUMBER_OF_FRAMES : 172925
NUMBER_OF_BYTES : 309881600
Video
ID : 1
Format : AVC
Format/Info : Advanced Video Codec
Format profile : High@L4.1
Format settings, CABAC : Yes
Format settings, ReFrames : 12 frames
Codec ID : V_MPEG4/ISO/AVC
Duration : 1h 32mn
Bit rate : 9 865 Kbps
Width : 1 280 pixels
Height : 532 pixels
Display aspect ratio : 2.40:1
Frame rate mode : Constant
Frame rate : 23.976 fps
Color space : YUV
Chroma subsampling : 4:2:0
Bit depth : 8 bits
Scan type : Progressive
Bits/(Pixel*Frame) : 0.604
Stream size : 6.35 GiB (83%)
Writing library : x264 core 142 r2479kMod dd79a61
Encoding settings : cabac=1 / ref=12 / deblock=1:-3:-3 / analyse=0x3:0x133 / me=umh / subme=10 / psy=1 / fade_compensate=0.00 / psy_rd=1.08:0.00 / mixed_ref=1 / me_range=24 / chroma_me=1 / trellis=2 / 8x8dct=1 / cqm=0 / deadzone=21,11 / fast_pskip=1 / chroma_qp_offset=-2 / threads=6 / lookahead_threads=1 / sliced_threads=0 / nr=0 / decimate=1 / interlaced=0 / bluray_compat=0 / constrained_intra=0 / fgo=0 / bframes=11 / b_pyramid=2 / b_adapt=2 / b_bias=0 / direct=3 / weightb=1 / open_gop=0 / weightp=2 / keyint=250 / keyint_min=23 / scenecut=40 / intra_refresh=0 / rc=crf / mbtree=0 / crf=15.6000 / qcomp=0.65 / qpmin=0 / qpmax=69 / qpstep=4 / ip_ratio=1.30 / pb_ratio=1.20 / aq=3:0.68
Language : English
Default : Yes
Forced : No
Matrix coefficients : BT.709
_STATISTICS_WRITING_APP : mkvmerge v7.4.0 ('Circles') 64bit built on Dec 12 2014 12:19:56
_STATISTICS_WRITING_DATE_UTC : 2014-12-19 08:51:50
_STATISTICS_TAGS : BPS DURATION NUMBER_OF_FRAMES NUMBER_OF_BYTES
DURATION : 01:32:13.570000000
NUMBER_OF_FRAMES : 132673
NUMBER_OF_BYTES : 6984641621
Audio #1
ID : 2
Format : AC-3
Format/Info : Audio Coding 3
Mode extension : CM (complete main)
Format settings, Endianness : Big
Codec ID : A_AC3
Duration : 1h 32mn
Bit rate mode : Constant
Bit rate : 448 Kbps
Channel(s) : 2 channels
Channel positions : Front: L R
Sampling rate : 48.0 KHz
Bit depth : 16 bits
Compression mode : Lossy
Stream size : 296 MiB (4%)
Title : DVO (Пиратская Студия)
Language : Russian
Default : Yes
Forced : No
Audio #2
ID : 3
Format : AC-3
Format/Info : Audio Coding 3
Mode extension : CM (complete main)
Format settings, Endianness : Big
Codec ID : A_AC3
Duration : 1h 32mn
Bit rate mode : Constant
Bit rate : 448 Kbps
Channel(s) : 6 channels
Channel positions : Front: L C R, Side: L R, LFE
Sampling rate : 48.0 KHz
Bit depth : 16 bits
Compression mode : Lossy
Stream size : 296 MiB (4%)
Title : VO (PashaUp)
Language : Russian
Default : No
Forced : No
Audio #3
ID : 4
Format : AC-3
Format/Info : Audio Coding 3
Mode extension : CM (complete main)
Format settings, Endianness : Big
Codec ID : A_AC3
Duration : 1h 32mn
Bit rate mode : Constant
Bit rate : 640 Kbps
Channel(s) : 6 channels
Channel positions : Front: L C R, Side: L R, LFE
Sampling rate : 48.0 KHz
Bit depth : 16 bits
Compression mode : Lossy
Stream size : 422 MiB (5%)
Language : English
Default : No
Forced : No
Audio #4
ID : 5
Format : AC-3
Format/Info : Audio Coding 3
Mode extension : CM (complete main)
Format settings, Endianness : Big
Codec ID : A_AC3
Duration : 1h 32mn
Bit rate mode : Constant
Bit rate : 224 Kbps
Channel(s) : 2 channels
Channel positions : Front: L R
Sampling rate : 48.0 KHz
Bit depth : 16 bits
Compression mode : Lossy
Stream size : 148 MiB (2%)
Title : Commentary
Language : English
Default : No
Forced : No
Text
ID : 6
Format : UTF-8
Codec ID : S_TEXT/UTF8
Codec ID/Info : UTF-8 Plain Text
Language : English
Default : No
Forced : No
Menu
00:00:00.000 : en:00:00:00.000
00:08:26.798 : en:00:08:26.798
00:15:45.403 : en:00:15:45.403
00:23:27.448 : en:00:23:27.448
00:29:37.859 : en:00:29:37.859
00:37:21.406 : en:00:37:21.406
00:48:45.005 : en:00:48:45.005
00:57:04.129 : en:00:57:04.129
01:04:23.568 : en:01:04:23.568
01:10:32.437 : en:01:10:32.437
01:16:08.147 : en:01:16:08.147
01:24:53.630 : en:01:24:53.630
Скриншоты
Скачать

Скачать торрент!

Как скачивать? · Что такое торрент? · Рейтинг и ограничения

Сайт не распространяет и не хранит электронные версии произведений, а лишь предоставляет доступ к создаваемому пользователями каталогу ссылок на торрент-файлы, которые содержат только списки хеш-сумм

[Профиль] [ЛС]
Показать сообщения:    
Ответить на тему

Текущее время: Сегодня 04:28

Часовой пояс: GMT + 4



Вы не можете начинать темы
Вы не можете отвечать на сообщения
Вы не можете редактировать свои сообщения
Вы не можете удалять свои сообщения
Вы не можете голосовать в опросах
Вы не можете прикреплять файлы к сообщениям
Вы не можете скачивать файлы