Повелитель иллюзий / Lord of Illusions (Клайв Баркер / Clive Barker) [1995, США, ужасы, триллер, детектив, BDRemux 1080p] [Режиссёрская версия / Director\'s Cut] Dub + DVO + 2x AVO (Гаврилов, Живов) + original (eng) + sub (eng)

Ответить на тему
 
Автор Сообщение

user ®

Стаж: 7 лет 7 месяцев

Сообщений: 20008

Пост Пост: #1 от 21-Дек-2014 00:45

[Цитировать]

Повелитель Иллюзий / Lord of Illusions
Год выпуска: 1995
Страна: США
Жанр: ужасы, триллер, детектив
Продолжительность: 02:01:33
Перевод1: Профессиональный (полное дублирование)(Варус Видео)
Перевод2: Профессиональный (двухголосый закадровый)(присутствуют вставки с дубляжа)
Перевод3: Авторский (одноголосый закадровый)(А.Гаврилов)
Перевод4: Авторский (одноголосый закадровый)(Ю.Живов)
Субтитры: английские
Оригинальная аудиодорожка: английский
Режиссер: Клайв Баркер / Clive Barker
В ролях: Скотт Бакула, Кевин Дж. О'Коннор, Фамке Янссен, Винсент Скьявелли, Бэрри Дель Шерман, Шила Тауси, Джоэл Светов, Джозеф Лэтимор, Сьюзан Трэйлор, Дэниэл Фон Барген
Описание: Заурядное дело, которое расследует частный детектив Гарри, приобретает пугающий оборот, когда он сталкивается с тайной, окружающей всемирно знаменитого мага Филипа Свана и его красавицу жену Доротею.
Гарри оказывается втянутым в чудовищный водоворот тайн, обмана и невообразимых ужасов. Иллюзия — трюк, но магия реальна…


Качество: BDRemux 1080p
Формат: MKV
Видео кодек: H.264
Аудио кодек: АС3, DTS-HD MA, FLAC
Видео: 1920 x 1080 / MPEG-4 AVC Video / 24996 kbps / 1080p / 23.976 fps / 16:9 / High Profile 4.1
Аудио1: Русский AC3 2.0 192 kbps 48 kHz (Dub)
Аудио2: Русский AC3 2.0 192 kbps 48 kHz (DVO)
Аудио3: Русский AC3 2.0 192 kbps 48 kHz (Gavrilov)
Аудио4: Русский AC3 5.1 384 kbps 48 kHz (Zhivov)
Аудио5: English, DTS-HD MA / 5.1 / 48 kHz / 2347 kbps / 24-bit (DTS Core: 5.1 / 48 kHz / 1509 kbps / 24-bit)(Original)
Аудио6: English, FLAC 2.0 ~653 kbps 48 kHz (Commentary)
Субтитры: Soft Sub (SRT)
Главы
MediaInfo
Общее
Уникальный идентификатор : 193510723177999043431445081867971929999 (0x9194CF4419449E75A8FD9B4771AB278F)
Полное имя : H:\Lord.of.Illusions.DC.1995.BDRemux.1080p.4xRus.Eng.mkv
Формат : Matroska
Версия формата : Version 4 / Version 2
Размер файла : 24,4 Гбайт
Продолжительность : 2 ч. 1 м.
Режим общего битрейта : Переменный
Общий поток : 28,8 Мбит/сек
Название фильма : Lord of Illusions
Дата кодирования : UTC 2014-12-18 17:40:15
Программа кодирования : mkvmerge v7.3.0 ('Nouages') 32bit built on Oct 22 2014 18:44:01
Библиотека кодирования : libebml v1.3.0 + libmatroska v1.4.1
DURATION : 02:01:34.027000000
NUMBER_OF_FRAMES : 85477
NUMBER_OF_BYTES : 595603555
_STATISTICS_WRITING_APP : mkvmerge v7.3.0 ('Nouages') 32bit built on Oct 22 2014 18:44:01
_STATISTICS_WRITING_DATE_UTC : 2014-12-18 17:40:15
_STATISTICS_TAGS : BPS DURATION NUMBER_OF_FRAMES NUMBER_OF_BYTES
Видео
Идентификатор : 1
Формат : AVC
Формат/Информация : Advanced Video Codec
Профиль формата : High@L4.1
Параметр CABAC формата : Да
Параметр ReFrames формата : 4 кадра
Идентификатор кодека : V_MPEG4/ISO/AVC
Продолжительность : 2 ч. 1 м.
Вид битрейта : Переменный
Максимальный битрейт : 27,0 Мбит/сек
Ширина : 1920 пикселей
Высота : 1080 пикселей
Соотношение сторон : 16:9
Режим частоты кадров : Постоянный
Частота кадров : 23,976 кадра/сек
Цветовое пространство : YUV
Субдискретизация насыщенности : 4:2:0
Битовая глубина : 8 бит
Тип развёртки : Прогрессивная
Заголовок : Lord of Illusions 1995 1080p Blu-ray AVC DTS-HD MA 5.1
Default : Нет
Forced : Нет
Аудио #1
Идентификатор : 2
Формат : AC-3
Формат/Информация : Audio Coding 3
Расширение режима : CM (complete main)
Параметр Endianness формата : Big
Идентификатор кодека : A_AC3
Продолжительность : 2 ч. 1 м.
Вид битрейта : Постоянный
Битрейт : 192 Кбит/сек
Каналы : 2 канала
Расположение каналов : Front: L R
Частота : 48,0 КГц
Битовая глубина : 16 бит
Метод сжатия : С потерями
Размер потока : 167 Мбайт (1%)
Заголовок : Dub AC3 2.0 192 kbps
Язык : Russian
Default : Нет
Forced : Нет
Аудио #2
Идентификатор : 3
Формат : AC-3
Формат/Информация : Audio Coding 3
Расширение режима : CM (complete main)
Параметр Endianness формата : Big
Идентификатор кодека : A_AC3
Продолжительность : 2 ч. 1 м.
Вид битрейта : Постоянный
Битрейт : 192 Кбит/сек
Каналы : 2 канала
Расположение каналов : Front: L R
Частота : 48,0 КГц
Битовая глубина : 16 бит
Метод сжатия : С потерями
Размер потока : 167 Мбайт (1%)
Заголовок : DVO AC3 2.0 192 kbps
Язык : Russian
Default : Нет
Forced : Нет
Аудио #3
Идентификатор : 4
Формат : AC-3
Формат/Информация : Audio Coding 3
Расширение режима : CM (complete main)
Параметр Endianness формата : Big
Идентификатор кодека : A_AC3
Продолжительность : 2 ч. 1 м.
Вид битрейта : Постоянный
Битрейт : 192 Кбит/сек
Каналы : 2 канала
Расположение каналов : Front: L R
Частота : 48,0 КГц
Битовая глубина : 16 бит
Метод сжатия : С потерями
Размер потока : 167 Мбайт (1%)
Заголовок : Gavrilov AC3 2.0 192 kbps
Язык : Russian
Default : Нет
Forced : Нет
Аудио #4
Идентификатор : 5
Формат : AC-3
Формат/Информация : Audio Coding 3
Расширение режима : CM (complete main)
Параметр Endianness формата : Big
Идентификатор кодека : A_AC3
Продолжительность : 2 ч. 1 м.
Вид битрейта : Постоянный
Битрейт : 384 Кбит/сек
Каналы : 6 каналов
Расположение каналов : Front: L C R, Side: L R, LFE
Частота : 48,0 КГц
Битовая глубина : 16 бит
Метод сжатия : С потерями
Размер потока : 334 Мбайт (1%)
Заголовок : Zhivov AC3 5.1 384 kbps
Язык : Russian
Default : Нет
Forced : Нет
Аудио #5
Идентификатор : 6
Формат : DTS
Формат/Информация : Digital Theater Systems
Профиль формата : MA / Core
Режим : 16
Параметр Endianness формата : Big
Идентификатор кодека : A_DTS
Продолжительность : 2 ч. 1 м.
Вид битрейта : Переменный
Битрейт : Неизвестно / 1509 Кбит/сек
Каналы : 6 каналов
Расположение каналов : Front: L C R, Side: L R, LFE
Частота : 48,0 КГц
Битовая глубина : 24 бит
Метод сжатия : Без потерь / Lossy
Заголовок : Original DTS-HD MA 5.1 2347 kbps
Язык : English
Default : Нет
Forced : Нет
Аудио #6
Идентификатор : 7
Формат : FLAC
Формат/Информация : Free Lossless Audio Codec
Идентификатор кодека : A_FLAC
Продолжительность : 2 ч. 1 м.
Вид битрейта : Переменный
Каналы : 2 канала
Частота : 48,0 КГц
Битовая глубина : 24 бит
Заголовок : Commentary FLAC 2.0 ~653 kbps
Библиотека кодирования : libFLAC 1.2.1 (UTC 2007-09-17)
Язык : English
Default : Нет
Forced : Нет
Текст
Идентификатор : 8
Формат : UTF-8
Идентификатор кодека : S_TEXT/UTF8
Идентификатор кодека/Информация : UTF-8 Plain Text
Язык : English
Default : Нет
Forced : Нет
Меню
00:00:00.000 : en:00:00:00.000
00:13:56.252 : en:00:13:56.252
00:28:25.287 : en:00:28:25.287
00:44:10.731 : en:00:44:10.731
00:59:55.383 : en:00:59:55.383
01:17:09.250 : en:01:17:09.250
01:33:42.242 : en:01:33:42.242
01:57:03.975 : en:01:57:03.975
Семпл Скриншоты
Скачать

Скачать торрент!

Как скачивать? · Что такое торрент? · Рейтинг и ограничения

Сайт не распространяет и не хранит электронные версии произведений, а лишь предоставляет доступ к создаваемому пользователями каталогу ссылок на торрент-файлы, которые содержат только списки хеш-сумм

[Профиль] [ЛС]
Показать сообщения:    
Ответить на тему

Текущее время: Сегодня 00:29

Часовой пояс: GMT + 4



Вы не можете начинать темы
Вы не можете отвечать на сообщения
Вы не можете редактировать свои сообщения
Вы не можете удалять свои сообщения
Вы не можете голосовать в опросах
Вы не можете прикреплять файлы к сообщениям
Вы не можете скачивать файлы