Святой Винсент / St. Vincent (Тед Мелфи / Theodore Melfi) [2014, США, Драма, комедия, WEB-DLRip] VO (datynet)

Ответить на тему
 
Автор Сообщение

user ®

Стаж: 7 лет 7 месяцев

Сообщений: 20008

Пост Пост: #1 от 20-Дек-2014 13:35

[Цитировать]

Святой Винсент / St. Vincent
Страна: США
Жанр: Драма, комедия
Год выпуска: 2014
Продолжительность: 01:42:05
Перевод: Одноголосый (закадровый) [datynet]
Оригинальная аудиодорожка:нет
Cубтитры: нет
Режиссер: Эли Дорси / Eli Dorsey
В ролях:Билл Мюррэй, Мелисса МакКарти, Наоми Уоттс, Крис О’Дауд, Терренс Ховард, Джейден Либерер, Кимберли Куинн, Ленни Венито, Нэйт Корддр, Дарио Бароссо
Описание: Фильм расскажет о 12-летнем мальчике, который, переживая развод своих родителей, заводит дружбу с пожилым соседом, пьющим ветераном войны, любящим азартные игры и проституток. И вот этот нелюдимый и далеко не положительный с виду человек становится наставником парнишки.

Сэмпл
Качество: WEB-DLRip
Контейнер: AVI
Видео: 720x304 (2.37:1), 59.940 fps, XviD MPEG-4 ~1722 kbps avg, 0.13 bit/pixel
Аудио: 48 kHz, AC3 Dolby Digital, 2/0 (L,R) ch, ~384 kbps

MI
General
Complete name : C:\Users\Вячеслав\Downloads\St.Vincent.2014.HDRip.avi
Format : AVI
Format/Info : Audio Video Interleave
File size : 1.38 GiB
Duration : 1h 42mn
Overall bit rate : 1 937 Kbps
Writing library : VirtualDub build 34753/release
Video
ID : 0
Format : MPEG-4 Visual
Format profile : Advanced Simple@L5
Format settings, BVOP : 1
Format settings, QPel : No
Format settings, GMC : No warppoints
Format settings, Matrix : Default (H.263)
Muxing mode : Packed bitstream
Codec ID : XVID
Codec ID/Hint : XviD
Duration : 1h 42mn
Bit rate : 1 721 Kbps
Width : 720 pixels
Height : 304 pixels
Display aspect ratio : 2.35:1
Frame rate : 59.940 fps
Color space : YUV
Chroma subsampling : 4:2:0
Bit depth : 8 bits
Scan type : Progressive
Compression mode : Lossy
Bits/(Pixel*Frame) : 0.131
Stream size : 1.23 GiB (89%)
Writing library : XviD 64
Audio
ID : 1
Format : MPEG Audio
Format version : Version 1
Format profile : Layer 3
Codec ID : 55
Codec ID/Hint : MP3
Duration : 1h 42mn
Bit rate mode : Constant
Bit rate : 192 Kbps
Channel(s) : 2 channels
Sampling rate : 44.1 KHz
Compression mode : Lossy
Stream size : 140 MiB (10%)
Alignment : Split accross interleaves
Interleave, duration : 17 ms (1.00 video frame)
Interleave, preload duration : 500 ms
Скриншоты
Скачать

Скачать торрент!

Как скачивать? · Что такое торрент? · Рейтинг и ограничения

Сайт не распространяет и не хранит электронные версии произведений, а лишь предоставляет доступ к создаваемому пользователями каталогу ссылок на торрент-файлы, которые содержат только списки хеш-сумм

[Профиль] [ЛС]
Показать сообщения:    
Ответить на тему

Текущее время: Сегодня 19:27

Часовой пояс: GMT + 4



Вы не можете начинать темы
Вы не можете отвечать на сообщения
Вы не можете редактировать свои сообщения
Вы не можете удалять свои сообщения
Вы не можете голосовать в опросах
Вы не можете прикреплять файлы к сообщениям
Вы не можете скачивать файлы