Прощайте, доктор Фрейд (Марина Мигунова) [2004 г., новогодняя комедия, DVDRip]

Ответить на тему
 
Автор Сообщение

user ®

Стаж: 7 лет 7 месяцев

Сообщений: 20008

Пост Пост: #1 от 19-Дек-2014 23:35

[Цитировать]

Прощайте, доктор ФрейдГод выпуска: 2004
Кинокомпания: Телефильм, Арчи-фильм
Жанр: новогодняя комедия
Продолжительность: 01:44:45
Cубтитры: нет
Режиссер: Марина Мигунова
Сценарий: Марина Мигунова, Вадим Михалев
Продюсер: Виталий Васильченко, Роман Лебедев, Сергей Аршинов
Оператор: Григорий Яблочников
Композитор: Виталий Гогунский
В ролях: Юлия Рутберг (Ирина), Илья Древнов (Пятаков), Сергей Чонишвили (антиквар Арнольд), Александра Назарова (Анна Павловна), Леонид Громов (Василий), Ирина Гринёва (Марьяша), Олег Леушин (Феликс), Елена Полякова (Нина), Виталий Гогунский (Антон), Вадим Михалев (доктор Фрейд), Алан Ужегов (генерал), Николай Рябков--Описание: До Нового года остаются считанные дни, когда герой фильма, арестованный по ложному доносу, выходит на свободу. Далее события искрометной комедии развиваются в стиле детектива.
В конце концов, герою удается разоблачить злоумышленника. Но важнее другое: выясняется, что законы любви сильнее методов психоанализа, благодаря чему новогодняя ночь для всех оказывается счастливой…-[url=http://***/forum/index.php] [/url]Рейтинг
imdb.com: 5.60 (17)
kinopoisk.ru: 6.747 (156)
-Качество: [url=http://***/forum/viewtopic.php?t=3829825]DVD[/url]Rip
Формат: AVI ///СОВМЕСТИМО С БЫТОВЫМИ ПЛЕЕРАМИ///
Размер : 1/3 DVDR
Видео: 704x432 (1.63:1), 25 fps, XviD build 66 ~1534 kbps avg, 0.20 bit/pixel

//SAMPLE//

Аудио: 48 kHz, AC3 Dolby Digital, 3/2 (L,C,R,l,r) + LFE ch, ~448 kbps-

MI
Код:
General
Complete name : H:\!Allfilms\Proschajte.doktor.Frejd.2004.XviD.AC3.DVDRip.avi
Format : AVI
Format/Info : Audio Video Interleave
File size : 1.46 GiB
Duration : 1h 44mn
Overall bit rate : 1 992 Kbps
Movie name : Прощайте, доктор Фрейд [2004] DVDRip
Director : Юpист
Genre : новогодняя комедия
Writing application : VirtualDubMod 1.5.10.3 | www.virtualdub-fr.org || (build 2550/release)
Writing library : VirtualDubMod build 2550/release
Copyright : tru
Video
ID : 0
Format : MPEG-4 Visual
Format profile : Advanced Simple@L5
Format settings, BVOP : 1
Format settings, QPel : No
Format settings, GMC : No warppoints
Format settings, Matrix : Custom
Codec ID : XVID
Codec ID/Hint : XviD
Duration : 1h 44mn
Bit rate : 1 535 Kbps
Width : 704 pixels
Height : 432 pixels
Display aspect ratio : 16:10
Frame rate : 25.000 fps
Color space : YUV
Chroma subsampling : 4:2:0
Bit depth : 8 bits
Scan type : Progressive
Compression mode : Lossy
Bits/(Pixel*Frame) : 0.202
Stream size : 1.12 GiB (77%)
Writing library : XviD 66
Audio
ID : 1
Format : AC-3
Format/Info : Audio Coding 3
Mode extension : CM (complete main)
Format settings, Endianness : Big
Codec ID : 2000
Duration : 1h 44mn
Bit rate mode : Constant
Bit rate : 448 Kbps
Channel(s) : 6 channels
Channel positions : Front: L C R, Side: L R, LFE
Sampling rate : 48.0 KHz
Bit depth : 16 bits
Compression mode : Lossy
Stream size : 336 MiB (22%)
Alignment : Split accross interleaves
Interleave, duration : 40 ms (1.00 video frame)
Interleave, preload duration : 500 ms

-
Cравнение
http://screenshotcomparison.com/comparison/104997/picture:8
[url=http://***/forum/viewtopic.php?t=1431073]http://***/forum/viewtopic.php?t=1431073[/url]

-
Скриншоты -
Скачать

Скачать торрент!

Как скачивать? · Что такое торрент? · Рейтинг и ограничения

Сайт не распространяет и не хранит электронные версии произведений, а лишь предоставляет доступ к создаваемому пользователями каталогу ссылок на торрент-файлы, которые содержат только списки хеш-сумм

[Профиль] [ЛС]
Показать сообщения:    
Ответить на тему

Текущее время: Сегодня 17:47

Часовой пояс: GMT + 4



Вы не можете начинать темы
Вы не можете отвечать на сообщения
Вы не можете редактировать свои сообщения
Вы не можете удалять свои сообщения
Вы не можете голосовать в опросах
Вы не можете прикреплять файлы к сообщениям
Вы не можете скачивать файлы