Секс на две ночи / Two Night Stand (Макс Николс / Max Nichols) [2014, США, Комедия, мелодрама, WEB-DLRip] MVO

Ответить на тему
 
Автор Сообщение

user ®

Стаж: 7 лет 7 месяцев

Сообщений: 20008

Пост Пост: #1 от 19-Дек-2014 23:35

[Цитировать]

--Секс на две ночи / Two Night Stand--«Before love. After sex»
-Страна: США
Жанр: Комедия, мелодрама
Год выпуска: 2014
Продолжительность: 01:26:13-Перевод: Профессиональный (многоголосый закадровый) Лицензия, R5
Cубтитры: нет
Режиссер: Макс Николс / Max Nichols-В ролях: Анали Типтон, Майлз Теллер, Джессика Зор, Скотт Мескади, Берто Колон, Джош Салатин, Келлин Линдсэй, Майкл Шоуолтер, Ливэн Рамбин, Джои Лорен Эдамс
Описание: Девушка застряла дома у парня на целый день из-за ужасного снежного шторма. Благодаря этому несчастному случаю молодые люди получают возможность познакомиться поближе.-|Сэмпл|IMDB|КиноПоиск|-Качество видео: WEB-DLRip
Формат видео: AVI
Видео: 720x304 (2.37:1), 23.976 fps, XviD build 50 ~1807 kbps avg, 0.34 bit/pixel
Аудио: 48 kHz, AC3 Dolby Digital, 3/2 (L,C,R,l,r) + LFE ch, ~448 kbps

MediaInfo
Общее
Полное имя : F:\BD torrent\mytorrentsup\Sex.na.dve.nochi.2014.P.WEB-DLRip.1400MB.avi
Формат : AVI
Формат/Информация : Audio Video Interleave
Размер файла : 1,36 Гбайт
Продолжительность : 1 ч. 26 м.
Общий поток : 2265 Кбит/сек
Программа кодирования : VirtualDubMod 1.5.10.2 (build 2540/release)
Библиотека кодирования : VirtualDubMod build 2540/release
Видео
Идентификатор : 0
Формат : MPEG-4 Visual
Профиль формата : Advanced Simple@L5
Параметр BVOP формата : 1
Параметр QPel формата : Нет
Параметр GMC формата : Без точки перехода
Параметр матрицы формата : Default (MPEG)
Идентификатор кодека : XVID
Идентификатор кодека/Подсказка : XviD
Продолжительность : 1 ч. 26 м.
Битрейт : 1807 Кбит/сек
Ширина : 720 пикселей
Высота : 304 пикселя
Соотношение сторон : 2,35:1
Частота кадров : 23,976 кадра/сек
Цветовое пространство : YUV
Субдискретизация насыщенности : 4:2:0
Битовая глубина : 8 бит
Тип развёртки : Прогрессивная
Метод сжатия : С потерями
Бит/(Пиксели*Кадры) : 0.344
Размер потока : 1,09 Гбайт (80%)
Библиотека кодирования : XviD 1.2.1 (UTC 2008-12-04)
Аудио
Идентификатор : 1
Формат : AC-3
Формат/Информация : Audio Coding 3
Расширение режима : CM (complete main)
Параметр Endianness формата : Big
Идентификатор кодека : 2000
Продолжительность : 1 ч. 26 м.
Вид битрейта : Постоянный
Битрейт : 448 Кбит/сек
Каналы : 6 каналов
Расположение каналов : Front: L C R, Side: L R, LFE
Частота : 48,0 КГц
Битовая глубина : 16 бит
Метод сжатия : С потерями
Размер потока : 276 Мбайт (20%)
Выравнивание : Разделение по промежуткам
Продолжительность промежутка : 42 мс. (1,00 видеокадр)
Время предзагрузки промежутка : 500 мс.
Скриншот c названием фильма Скриншоты Сравнение
C этой раздачи: [url=http://***/forum/viewtopic.php?t=4888770]http://***/forum/viewtopic.php?t=4888770[/url] http://screenshotcomparison.com/comparison/104994/picture:0
аудиодорожка: 48 kHz, AC3 Dolby Digital, 3/2 (L,C,R,l,r) + LFE ch, ~448 kbps / 48 kHz, AC3 Dolby Digital, 2/0 (L,R) ch, ~256 kbps
Скачать

Скачать торрент!

Как скачивать? · Что такое торрент? · Рейтинг и ограничения

Сайт не распространяет и не хранит электронные версии произведений, а лишь предоставляет доступ к создаваемому пользователями каталогу ссылок на торрент-файлы, которые содержат только списки хеш-сумм

[Профиль] [ЛС]
Показать сообщения:    
Ответить на тему

Текущее время: Сегодня 11:57

Часовой пояс: GMT + 4



Вы не можете начинать темы
Вы не можете отвечать на сообщения
Вы не можете редактировать свои сообщения
Вы не можете удалять свои сообщения
Вы не можете голосовать в опросах
Вы не можете прикреплять файлы к сообщениям
Вы не можете скачивать файлы