Великий уравнитель / The Equalizer (Антуан Фукуа / Antoine Fuqua) [2014, США, боевик, триллер, криминал, BDRip] Dub CEE + Sub rus forced

Ответить на тему
 
Автор Сообщение

user ®

Стаж: 7 лет 7 месяцев

Сообщений: 20008

Пост Пост: #1 от 19-Дек-2014 00:45

[Цитировать]

Великий уравнитель / The Equalizer
«What do you see when you look at me?»
-Страна: США / Columbia Pictures, Escape Artists, Lonetree Entertainment, LStar Capital...
Жанр: боевик, триллер, криминал
Год выпуска: 2014
Продолжительность: 02:12:02
Перевод: Профессиональный (дублированный) лицензия CEE
Cубтитры: русские (forced) на надписи и пр. (внешние)
Режиссёр: Антуан Фукуа / Antoine Fuqua
В ролях: Дензел Вашингтон, Мартон Чокаш, Хлоя Грейс Морец, Дэвид Харбор, Хейли Беннетт, Билл Пуллман, Мелисса Лео, Дэвид Мюнье, Джонни Скуртис, Алекс Видов, Владимир Кулих, Э. Роджер Митчелл, Джеймс Уилкокс
Описание: Роберт МакКолл — бывший спецназовец. После увольнения со службы он собирается начать нормальную мирную жизнь, дав себе обещание больше никогда не брать в руки оружия. Но в один прекрасный момент он встречает молодую девушку, зарабатывающую на жизнь проституцией, которую на его глазах избивают бандиты и увозят в неизвестном направлении. Тогда он решает отыскать ее, после чего вступает в неравную схватку с русской мафией и продажными агентами ЦРУ. Ради справедливости он готов нарушить собственное обещание и применить оружие против людей, которые просто не заслуживают жить в этом мире…-Рейтинг
imdb.com: 7.30 (64 764)
kinopoisk.ru: 7.136 (18 131)
MPAA: - лицам до 17 лет обязательно присутствие взрослого-Сэмпл: http://multi-up.com/1021255-Качество видео: BDRip [видео: Velikiy.uravnitelj.2014.x264.Blu-Ray.Remux.1080p.gogamel74.ExKinoRay]
Формат видео: AVI
Видео: XviD build 65, 720x304 (2.37:1), 23.976 fps, ~1905 kbps avg, 0.363 bit/pixel
Аудио: 48 kHz, AC3 Dolby Digital, 3/2 (L,C,R,l,r) + LFE ch, ~448 kbps avg (Dub)
Формат субтитров: softsub (SRT)
-MediaInfo
Общее
Полное имя : D:\The.Equalizer.2014.Dub.BDRip.2,18Gb.XviD.AC3\The.Equalizer.2014.Dub.BDRip.2,18Gb.XviD.AC3.avi
Формат : AVI
Формат/Информация : Audio Video Interleave
Профиль формата : OpenDML
Размер файла : 2,18 Гбайт
Продолжительность : 2 ч. 12 м.
Общий поток : 2365 Кбит/сек
Название фильма : The Equalizer 2014
Режиссёр : Antoine Fuqua
Дата записи : 18.12.2014
Программа кодирования : VirtualDubModRus 1.5.10.2 (build 2542/release)
Библиотека кодирования : VirtualDubMod build 2542/release
Правообладатель : ***
Примечание : BDRip by MooN_WalkeR
Видео
Идентификатор : 0
Формат : MPEG-4 Visual
Профиль формата : Advanced Simple@L5
Параметр BVOP формата : 1
Параметр QPel формата : Нет
Параметр GMC формата : Без точки перехода
Параметр матрицы формата : Выборочная
Идентификатор кодека : XVID
Идентификатор кодека/Подсказка : XviD
Продолжительность : 2 ч. 12 м.
Битрейт : 1905 Кбит/сек
Ширина : 720 пикселей
Высота : 304 пикселя
Соотношение сторон : 2,35:1
Частота кадров : 23,976 кадра/сек
Цветовое пространство : YUV
Субдискретизация насыщенности : 4:2:0
Битовая глубина : 8 бит
Тип развёртки : Прогрессивная
Метод сжатия : С потерями
Бит/(Пиксели*Кадры) : 0.363
Размер потока : 1,76 Гбайт (81%)
Библиотека кодирования : XviD 65
Аудио
Идентификатор : 1
Формат : AC-3
Формат/Информация : Audio Coding 3
Расширение режима : CM (complete main)
Параметр Endianness формата : Big
Идентификатор кодека : 2000
Продолжительность : 2 ч. 12 м.
Вид битрейта : Постоянный
Битрейт : 448 Кбит/сек
Каналы : 6 каналов
Расположение каналов : Front: L C R, Side: L R, LFE
Частота : 48,0 КГц
Битовая глубина : 16 бит
Метод сжатия : С потерями
Размер потока : 423 Мбайт (19%)
Выравнивание : Разделение по промежуткам
Продолжительность промежутка : 42 мс. (1,00 видеокадр)
Время предзагрузки промежутка : 500 мс.
Заголовок : Dub CEE
Скриншоты
Скачать

Скачать торрент!

Как скачивать? · Что такое торрент? · Рейтинг и ограничения

Сайт не распространяет и не хранит электронные версии произведений, а лишь предоставляет доступ к создаваемому пользователями каталогу ссылок на торрент-файлы, которые содержат только списки хеш-сумм

[Профиль] [ЛС]
Показать сообщения:    
Ответить на тему

Текущее время: Сегодня 08:04

Часовой пояс: GMT + 4



Вы не можете начинать темы
Вы не можете отвечать на сообщения
Вы не можете редактировать свои сообщения
Вы не можете удалять свои сообщения
Вы не можете голосовать в опросах
Вы не можете прикреплять файлы к сообщениям
Вы не можете скачивать файлы