Лучшее во мне / The Best of Me (Майкл Хоффман / Michael Hoffman) [2014, США. Драма, Мелодрама, WED-DLRip] Dub [iTunes]

Ответить на тему
 
Автор Сообщение

user ®

Стаж: 7 лет 7 месяцев

Сообщений: 20008

Пост Пост: #1 от 18-Дек-2014 14:20

[Цитировать]

Лучшее во мне / The Best of Me
Страна: США
Жанр: Драма, Мелодрама
Год выпуска: 2014
Продолжительность: 01:57:41
Перевод: Профессиональный (дублированый) [iTunes]
Оригинальная аудиодорожка: нет
Cубтитры: нет
Режиссер: Майкл Хоффман / Michael Hoffman
В ролях:Мишель Монахэн, Джеймс Марсден, Люк Брейси, Лиана Либерато, Джералд МакРэйни, Кэролайн Гудолл, Кларк Питерс, Себастьян Арселус, Джон Тенни, Шон Бриджерс...
Описание:История о двух бывших возлюбленных подростках. Никто из них не жил жизнью, которую они представляли и никто не может забыть страстную первую любовь, которая изменила всю жизнь. И вот обоих зовут на похороны их наставника, который когда-то дал им приют…

Сэмпл
Качество: WEB-DLRip
Контейнер: AVI
Видео: 720x304 (2.37:1), 24 fps, XviD build 73 ~2257 kbps avg, 0.43 bit/pixel
Аудио: 48 kHz, AC3 Dolby Digital, 3/2 (L,C,R,l,r) + LFE ch, ~384 kbps

MI
Общее
Полное имя : C:\Users\Пользователь\Downloads\Luchshee_vo_mne_2014_WEB-DLRip.avi
Формат : AVI
Формат/Информация : Audio Video Interleave
Профиль формата : OpenDML
Размер файла : 2,18 Гбайт
Продолжительность : 1 ч. 57 м.
Общий поток : 2648 Кбит/сек
Программа кодирования : VirtualDubMod 1.5.10.3 | www.virtualdub-fr.org || (build 2550/release)
Библиотека кодирования : VirtualDubMod build 2550/release
Видео
Идентификатор : 0
Формат : MPEG-4 Visual
Профиль формата : Advanced Simple@L5
Параметр BVOP формата : 1
Параметр QPel формата : Нет
Параметр GMC формата : Без точки перехода
Параметр матрицы формата : Выборочная
Идентификатор кодека : XVID
Идентификатор кодека/Подсказка : XviD
Продолжительность : 1 ч. 57 м.
Битрейт : 2253 Кбит/сек
Ширина : 720 пикселей
Высота : 304 пикселя
Соотношение сторон : 2,35:1
Частота кадров : 24,000 кадра/сек
Цветовое пространство : YUV
Субдискретизация насыщенности : 4:2:0
Битовая глубина : 8 бит
Тип развёртки : Прогрессивная
Метод сжатия : С потерями
Бит/(Пиксели*Кадры) : 0.429
Размер потока : 1,85 Гбайт (85%)
Библиотека кодирования : XviD 73
Аудио
Идентификатор : 1
Формат : AC-3
Формат/Информация : Audio Coding 3
Расширение режима : CM (complete main)
Параметр Endianness формата : Big
Идентификатор кодека : 2000
Продолжительность : 1 ч. 57 м.
Вид битрейта : Постоянный
Битрейт : 384 Кбит/сек
Каналы : 6 каналов
Расположение каналов : Front: L C R, Side: L R, LFE
Частота : 48,0 КГц
Битовая глубина : 16 бит
Метод сжатия : С потерями
Размер потока : 323 Мбайт (15%)
Выравнивание : Разделение по промежуткам
Продолжительность промежутка : 42 мс. (1,00 видеокадр)
Время предзагрузки промежутка : 500 мс.
Скриншоты
Скачать

Скачать торрент!

Как скачивать? · Что такое торрент? · Рейтинг и ограничения

Сайт не распространяет и не хранит электронные версии произведений, а лишь предоставляет доступ к создаваемому пользователями каталогу ссылок на торрент-файлы, которые содержат только списки хеш-сумм

[Профиль] [ЛС]
Показать сообщения:    
Ответить на тему

Текущее время: Сегодня 05:05

Часовой пояс: GMT + 4



Вы не можете начинать темы
Вы не можете отвечать на сообщения
Вы не можете редактировать свои сообщения
Вы не можете удалять свои сообщения
Вы не можете голосовать в опросах
Вы не можете прикреплять файлы к сообщениям
Вы не можете скачивать файлы