Мул / The Mule (Тони Махони / Tony Mahony, Энгус Сэмпсон / Angus Sampson) [2014, Австралия, криминал, комедия, драма, HDRip] DVO (den904 & DeadSno)

Ответить на тему
 
Автор Сообщение

user ®

Стаж: 7 лет 7 месяцев

Сообщений: 20008

Пост Пост: #1 от 17-Дек-2014 11:05

[Цитировать]

Мул / The Mule
Страна: Австралия
Жанр: криминал, комедия, драма
Год выпуска: 2014
Продолжительность: 1:42:37
Перевод: Любительский (двухголосый закадровый) [den904 & DeadSno] - по переводу [dsa69]
Cубтитры: нет
Оригинальная аудиодорожка: нет
Режиссер: Тони Махони, Энгус Сэмпсон / Tony Mahony, Angus Sampson
В ролях: Хьюго Уивинг, Энгус Сэмпсон, Ли Уоннелл, Ивен Лесли, Джофф Морелл, Джорджина Хэйг, Нони Хазлхерст, Джон Ноубл, Ник Фарнелл, Саймон Кинг
Описание: История о наивном человеке, который согласился на перевозку наркотиков в своем желудке и был задержан федеральной полицией. Он, оставшийся один и напуганный, принимает отчаянное решение: бросает вызов своему организму и удерживает доказательства внутри… в буквальном смысле. Поступая таким образом, он становится «человеческой бомбой замедленного действия», затаскивая полицейских, преступников и свою семью в безвыходную авантюру.
Доп. информация: Фильм основан на реальных событиях
Внимание! Присутствует ненормативная лексика!

Качество видео: HDRip
Формат видео: AVI
Видео: MPEG-4 Visual, XVID, 720 x 304 (2.35:1), 24.000 fps, 1 581 Kbps, 0.301 bit/pix
Аудио: AC-3, 48.0 KHz, 6 ch (Front: L C R, Side: L R, LFE), 448 Kbps
MediaInfo
General
Полное имя : D:The.Mule.2014.HDRip.1.46.avi
Формат : AVI
Формат/Информация : Audio Video Interleave
Размер файла : 1.46 GiB
Продолжительность : 1h 42mn
Общий поток : 2 038 Kbps
Программа кодирования : VirtualDubMod 1.5.10.2 (build 2542/release)
Библиотека кодирования : VirtualDubMod build 2542/release
Video
Идентификатор : 0
Формат : MPEG-4 Visual
Профиль формата : Advanced Simple@L5
Параметр BVOP формата : 2
Параметр QPel формата : No
Параметр GMC формата : No warppoints
Параметр матрицы формата : Default (MPEG)
Идентификатор кодека : XVID
Идентификатор кодека/Подсказка : XviD
Продолжительность : 1h 42mn
Битрейт : 1 581 Kbps
Ширина : 720 pixels
Высота : 304 pixels
Соотношение сторон : 2.35:1
Частота кадров : 24.000 fps
Цветовое пространство : YUV
Субдискретизация насыщенности : 4:2:0
Битовая глубина : 8 bits
Тип развёртки : Progressive
Метод сжатия : Lossy
Бит/(Пиксели*Кадры) : 0.301
Размер потока : 1.13 GiB (78%)
Библиотека кодирования : XviD 1.2.1 (UTC 2008-12-04)
Audio
Идентификатор : 1
Формат : AC-3
Формат/Информация : Audio Coding 3
Расширение режима : CM (complete main)
Параметр Endianness формата : Big
Идентификатор кодека : 2000
Продолжительность : 1h 42mn
Вид битрейта : Constant
Битрейт : 448 Kbps
Каналы : 6 channels
Расположение каналов : Front: L C R, Side: L R, LFE
Частота : 48.0 KHz
Битовая глубина : 16 bits
Метод сжатия : Lossy
Размер потока : 329 MiB (22%)
Выравнивание : Split accross interleaves
Продолжительность промежутка : 42 ms (1.00 video frame)
Время предзагрузки промежутка : 500 ms
Скриншот c названием фильма Скриншоты
Скачать

Скачать торрент!

Как скачивать? · Что такое торрент? · Рейтинг и ограничения

Сайт не распространяет и не хранит электронные версии произведений, а лишь предоставляет доступ к создаваемому пользователями каталогу ссылок на торрент-файлы, которые содержат только списки хеш-сумм

[Профиль] [ЛС]
Показать сообщения:    
Ответить на тему

Текущее время: Сегодня 20:37

Часовой пояс: GMT + 4



Вы не можете начинать темы
Вы не можете отвечать на сообщения
Вы не можете редактировать свои сообщения
Вы не можете удалять свои сообщения
Вы не можете голосовать в опросах
Вы не можете прикреплять файлы к сообщениям
Вы не можете скачивать файлы