Обитель проклятых / Eliza Graves (Брэд Андерсон / Brad Anderson) [2014, США, Триллер, Драма, BDRip-AVC] Dub + Original Eng

Ответить на тему
 
Автор Сообщение

user ®

Стаж: 7 лет 7 месяцев

Сообщений: 20008

Пост Пост: #1 от 17-Дек-2014 01:30

[Цитировать]

Обитель проклятых / Eliza Graves / Stonehearst Asylum«No one is what they seem»- Страна: США | Icon Productions, Sobini Films
Жанр: Триллер, Драма
Год выпуска: 2014
Продолжительность: 01:52:39
Перевод: Профессиональный (дублированный) |лицензия BD RUS|
Cубтитры: Английские (Full + SDH + SDH-Colored)
Оригинальная аудиодорожка: английский
Навигация по главам: Есть-Режиссер: Брэд Андерсон / Brad Anderson-В ролях: Кейт Бекинсейл (Eliza Graves), Джим Стёрджесс (Edward Newgate), Бен Кингсли (Silas Lamb), Дэвид Тьюлис (Mickey Finn), Майкл Кейн (Dr. Salt), Брендан Глисон (The Alienist), Джейсон Флеминг (Swanwick), Софи Кеннеди Кларк (Millie), Шинед Кьюсак (Mrs. Pike), Гийом Делони (Arthur Timbs), Эдмунд Кингсли (Charles Graves),Кристофер Фулфорд (Paxton)-Описание: По мотивам произведения Эдгара Аллана По «Система доктора Смоля и профессора Перро». Действие фильма разворачивается в конце XIX века. Молодой психиатр прибывает в психиатрическую больницу Стоунхёрст, в которой лечатся исключительно пациенты благородных кровей, для получения практического опыта. Представившись доктором Эдвардом Ньюгейтом из Оксфорда психиатр знакомится с немного странным персоналом больницы. И с первого дня пребывания доктор располагает к себе весьма привлекательную Элизу Грейвс, кажущуюся ему нормальной пациентку, которая откусила ухо и выколола глаз мужу.-| IMDB | КиноПоиск | Сэмпл |-Премьера (мир): 14 июня 2014, ...
Премьера (РФ): 23 октября 2014, «UPI»
Релиз на Blu-Ray: 11 декабря 2014, «CP Дистрибуция», ...
Релиз на DVD: 11 декабря 2014, «CP Дистрибуция», ...-Качество видео: BDRip-AVC (Источник: Blu-Ray Remux 1080p)
Формат видео: MKV
Видео: MPEG4 (H264) 1056x440 (2,40:1), 23,976 fps, 1874 kbps, 0.168 bit/pixel
Аудио 1: Dolby AC3 48000Hz 6ch 448kbps [A: Dub | DD 5.1 @ 448 kbps - | RUS |
Аудио 2: Dolby AC3 48000Hz 6ch 448kbps [A: Original | DD 5.1 @ 448 kbps - |ENG |-

Релиз группы: HELLYWOOD
Автор рипа: potroks
-MediaInfo
General
Unique ID : 246927878829644571179461413222500024550 (0xB9C49460492530D9A1A3E3D8FB9440E6)
Complete name : D:\FILMS\Obitel'.Proklyatyh.2014.DUAL.BDRip.x264.-HELLYWOOD.mkv
Format : Matroska
Format version : Version 4 / Version 2
File size : 2.18 GiB
Duration : 1h 52mn
Overall bit rate : 2 771 Kbps
Movie name : Eliza Graves (2014) - HELLYWOOD
Encoded date : UTC 2014-12-07 11:30:44
Writing application : mkvmerge v5.9.0 ('On The Loose') built on Dec 15 2012 16:39:58
Writing library : libebml v1.3.0 + libmatroska v1.4.0
Video
ID : 1
Format : AVC
Format/Info : Advanced Video Codec
Format profile : High@L4.1
Format settings, CABAC : Yes
Format settings, ReFrames : 10 frames
Codec ID : V_MPEG4/ISO/AVC
Duration : 1h 52mn
Bit rate : 1 874 Kbps
Width : 1 056 pixels
Height : 440 pixels
Display aspect ratio : 2.40:1
Frame rate mode : Constant
Frame rate : 23.976 fps
Color space : YUV
Chroma subsampling : 4:2:0
Bit depth : 8 bits
Scan type : Progressive
Bits/(Pixel*Frame) : 0.168
Stream size : 1.43 GiB (66%)
Title : potroks
Writing library : x264 core 130 r2273 b3065e6
Encoding settings : cabac=1 / ref=10 / deblock=1:-2:-2 / analyse=0x3:0x133 / me=umh / subme=11 / psy=1 / psy_rd=1.04:0.02 / mixed_ref=1 / me_range=48 / chroma_me=1 / trellis=2 / 8x8dct=1 / cqm=0 / deadzone=21,11 / fast_pskip=0 / chroma_qp_offset=-3 / threads=9 / lookahead_threads=6 / sliced_threads=0 / nr=0 / decimate=0 / interlaced=0 / bluray_compat=0 / constrained_intra=0 / bframes=11 / b_pyramid=2 / b_adapt=2 / b_bias=0 / direct=3 / weightb=1 / open_gop=0 / weightp=2 / keyint=250 / keyint_min=23 / scenecut=40 / intra_refresh=0 / rc_lookahead=60 / rc=2pass / mbtree=0 / bitrate=1874 / ratetol=1.0 / qcomp=0.72 / qpmin=0 / qpmax=69 / qpstep=4 / cplxblur=20.0 / qblur=0.5 / vbv_maxrate=50000 / vbv_bufsize=62500 / nal_hrd=none / ip_ratio=1.35 / pb_ratio=1.25 / aq=1:0.80
Language : English
Default : Yes
Forced : No
Audio #1
ID : 2
Format : AC-3
Format/Info : Audio Coding 3
Mode extension : CM (complete main)
Format settings, Endianness : Big
Codec ID : A_AC3
Duration : 1h 52mn
Bit rate mode : Constant
Bit rate : 448 Kbps
Channel(s) : 6 channels
Channel positions : Front: L C R, Side: L R, LFE
Sampling rate : 48.0 KHz
Bit depth : 16 bits
Compression mode : Lossy
Stream size : 361 MiB (16%)
Title : Dub | DD 5.1 @ 448 kbps - Blu-Ray RUS
Language : Russian
Default : Yes
Forced : Yes
Audio #2
ID : 3
Format : AC-3
Format/Info : Audio Coding 3
Mode extension : CM (complete main)
Format settings, Endianness : Big
Codec ID : A_AC3
Duration : 1h 52mn
Bit rate mode : Constant
Bit rate : 448 Kbps
Channel(s) : 6 channels
Channel positions : Front: L C R, Side: L R, LFE
Sampling rate : 48.0 KHz
Bit depth : 16 bits
Compression mode : Lossy
Stream size : 361 MiB (16%)
Title : Original | DD 5.1 @ 448 kbps
Language : English
Default : No
Forced : No
Text #1
ID : 4
Format : UTF-8
Codec ID : S_TEXT/UTF8
Codec ID/Info : UTF-8 Plain Text
Title : Full
Language : English
Default : No
Forced : No
Text #2
ID : 5
Format : UTF-8
Codec ID : S_TEXT/UTF8
Codec ID/Info : UTF-8 Plain Text
Title : SDH
Language : English
Default : No
Forced : No
Text #3
ID : 6
Format : UTF-8
Codec ID : S_TEXT/UTF8
Codec ID/Info : UTF-8 Plain Text
Title : SDH-Colored
Language : English
Default : No
Forced : No
Menu
00:00:00.000 : en:(01)00:00:00:000
00:09:14.886 : en:(02)00:09:14:886
00:17:51.361 : en:(03)00:17:51:361
00:27:37.906 : en:(04)00:27:37:906
00:37:54.730 : en:(05)00:37:54:730
00:45:40.696 : en:(06)00:45:40:696
00:54:59.921 : en:(07)00:54:59:921
01:03:44.028 : en:(08)01:03:44:028
01:12:48.405 : en:(09)01:12:48:405
01:22:12.427 : en:(10)01:22:12:427
01:30:24.252 : en:(11)01:30:24:252
01:48:23.121 : en:(12)01:48:23:121
01:52:40.211 : en:(13)01:52:40:211
Интересные факты
• В основе сюжета лежит один из рассказов Эдгара Аллана По «Система доктора Смоля и профессора Перро».
• Картина создавалась в Болгарии, и некоторые из её сцен снимались в королевском дворце «Врана» на окраине Софии. Сейчас там живёт Симеон II, последний болгарский монарх и бывший премьер-министр страны.
• В моменте, когда Эдвард Ньюгейт кормит пожилую женщину, которая до этого отказывалась принимать пищу, она берёт его за плечи. В следующем кадре, со спины героя, она держит его за голову. Далее при каждой смене кадра ошибка повторяется.
Скриншот c названием фильма Скриншоты Сравнение скриншотов
http://screenshotcomparison.com/comparison/104615/
[url=http://***/forum/viewtopic.php?t=4885237]http://***/forum/viewtopic.php?t=4885237[/url]
Скачать

Скачать торрент!

Как скачивать? · Что такое торрент? · Рейтинг и ограничения

Сайт не распространяет и не хранит электронные версии произведений, а лишь предоставляет доступ к создаваемому пользователями каталогу ссылок на торрент-файлы, которые содержат только списки хеш-сумм

[Профиль] [ЛС]
Показать сообщения:    
Ответить на тему

Текущее время: Сегодня 22:41

Часовой пояс: GMT + 4



Вы не можете начинать темы
Вы не можете отвечать на сообщения
Вы не можете редактировать свои сообщения
Вы не можете удалять свои сообщения
Вы не можете голосовать в опросах
Вы не можете прикреплять файлы к сообщениям
Вы не можете скачивать файлы