Макар - следопыт (Николай Ковальский) [1984, детский, приключения, военный, DVDRip]

Ответить на тему
 
Автор Сообщение

user ®

Стаж: 7 лет 7 месяцев

Сообщений: 20008

Пост Пост: #1 от 16-Дек-2014 19:10

[Цитировать]

Макар - следопыт (3 серии)
Жанр: Детский, Приключения, Военный
Год выпуска: 1984
Продолжительность: 03:07:54
Режиссёр: Николай Ковальский
Сценарий: Анатолий Козак, Л.Остроумов
Композитор: Виктор Лебедев
В ролях: Максим Минин, Сергей Савватеев, Олег Борисов, Владимир Этуш, Александр Леньков, Ангелина Полянчукова, Иван Краско, Андрей Ростоцкий, Игорь Дмитриев
Описание: Юные герои фильма, подростки, переживают множество увлекательных и опасных приключений, активно участвуя в событиях гражданской войны...
Доп. информация: Данный рип 3-х-серийного фильма сделан одним файлом
[url=http://***/forum/viewtopic.php?t=2334012] [/url]
Формат видео: AVI
Качество видео: DVDRip (DVD9)
Видео кодек: XviD
Аудио кодек: MP3
Видео: XviD, 688х528, 25fps, 1518kbps
Аудио: MPEG Layer 3, 48000Hz, 128kbps, stereo
MediaInfo
General
Complete name : Makar.Sledopyt.1984.O.DVDRip.2100.MediaClub.CurHaJI.avi
Format : AVI
Format/Info : Audio Video Interleave
Format profile : OpenDML
File size : 2.18 GiB
Duration : 3h 7mn
Overall bit rate : 1 658 Kbps
Movie name : Makar.Sledopyt.1984.O.DVDRip.2100.MediaClub.CurHaJI
Writing application : VirtualDubMod 1.5.10.3 | www.virtualdub-fr.org || (build 2550/release)
Writing library : VirtualDub build 35491/release
Video
ID : 0
Format : MPEG-4 Visual
Format profile : Advanced Simple@L5
Format settings, BVOP : 2
Format settings, QPel : No
Format settings, GMC : No warppoints
Format settings, Matrix : Custom
Codec ID : XVID
Codec ID/Hint : XviD
Duration : 3h 7mn
Bit rate : 1 518 Kbps
Width : 688 pixels
Height : 528 pixels
Display aspect ratio : 4:3
Frame rate : 25.000 fps
Color space : YUV
Chroma subsampling : 4:2:0
Bit depth : 8 bits
Scan type : Progressive
Compression mode : Lossy
Bits/(Pixel*Frame) : 0.167
Stream size : 1.99 GiB (92%)
Writing library : XviD 1.2.1 (UTC 2008-12-04)
Audio
ID : 1
Format : MPEG Audio
Format version : Version 1
Format profile : Layer 3
Codec ID : 55
Codec ID/Hint : MP3
Duration : 3h 7mn
Bit rate mode : Constant
Bit rate : 128 Kbps
Channel(s) : 2 channels
Sampling rate : 48.0 KHz
Compression mode : Lossy
Stream size : 172 MiB (8%)
Alignment : Aligned on interleaves
Interleave, duration : 40 ms (1.00 video frame)
Interleave, preload duration : 504 ms
Writing library : L3.99r
Encoding settings : -m s -V 4 -q 2 -lowpass 17 -b 128
Скриншоты
Скачать

Скачать торрент!

Как скачивать? · Что такое торрент? · Рейтинг и ограничения

Сайт не распространяет и не хранит электронные версии произведений, а лишь предоставляет доступ к создаваемому пользователями каталогу ссылок на торрент-файлы, которые содержат только списки хеш-сумм

[Профиль] [ЛС]
Показать сообщения:    
Ответить на тему

Текущее время: Сегодня 21:38

Часовой пояс: GMT + 4



Вы не можете начинать темы
Вы не можете отвечать на сообщения
Вы не можете редактировать свои сообщения
Вы не можете удалять свои сообщения
Вы не можете голосовать в опросах
Вы не можете прикреплять файлы к сообщениям
Вы не можете скачивать файлы