Иуда (Андрей Богатырев) [2013, Драма, DVDRip]

Ответить на тему
 
Автор Сообщение

user ®

Стаж: 7 лет 7 месяцев

Сообщений: 20008

Пост Пост: #1 от 16-Дек-2014 03:00

[Цитировать]

Иуда-- Жанр: Драма
Год выпуска: 2013
Продолжительность: 01:47:31
Режиссёр: Андрей Богатырев--В ролях: Алексей Шевченков, Сергей Фролов, Андрей Барило, Иван Добронравов, Ольга Сташкевич, Алексей Боченин, Вадим Яковлев, Ольга Аксёнова, Максим Дугишов, Андрей Богатырев
Описание: Тайный смысл одного из самых известных библейских предательств не могут разгадать вот уже 2000 лет. Фильм-провокация Андрея Богатырёва «Иуда» по нашумевшей повести Леонида Андреева — это обратная сторона истории Иуды Искариота, апостола-изгоя, и поиск ответа на вопрос: почему на самом деле Иуда предал Христа?--Сэмпл: http://sendfile.su/1062324
Качество видео: DVDRip
Формат видео: AVI
Видео: 688x288 (2.40:1), 25.00 fps, ~833 kbps avg, 0.17 bit/pixel
Аудио: 48.00 kHz, MPEG Layer 3, 2 ch, ~128.00 kbps avg

MediaInfo
General
Format : AVI
Format/Info : Audio Video Interleave
File size : 746 MiB
Duration : 1h 47mn
Overall bit rate : 971 Kbps
Writing application : VirtualDubMod 1.5.10.3 | www.virtualdub-fr.org || (build 2550/release)
Writing library : VirtualDubMod build 2550/release
Video
ID : 0
Format : MPEG-4 Visual
Format profile : Advanced Simple@L5
Format settings, BVOP : 1
Format settings, QPel : No
Format settings, GMC : No warppoints
Format settings, Matrix : Default Custom
Codec ID : XVID
Codec ID/Hint : XviD
Duration : 1h 47mn
Bit rate : 833 Kbps
Width : 688 pixels
Height : 288 pixels
Display aspect ratio : 2.40:1
Frame rate : 25.000 fps
Color space : YUV
Chroma subsampling : 4:2:0
Bit depth : 8 bits
Scan type : Progressive
Compression mode : Lossy
Bits/(Pixel*Frame) : 0.168
Stream size : 641 MiB (86%)
Writing library : XviD 73
Audio
ID : 1
Format : MPEG Audio
Format version : Version 1
Format profile : Layer 3
Codec ID : 55
Codec ID/Hint : MP3
Duration : 1h 47mn
Bit rate mode : Constant
Bit rate : 128 Kbps
Channel(s) : 2 channels
Sampling rate : 48.0 KHz
Compression mode : Lossy
Stream size : 98.4 MiB (13%)
Alignment : Aligned on interleaves
Interleave, duration : 40 ms (1.00 video frame)
Interleave, preload duratio : 504 ms
Writing library : LAME3.99r
Encoding settings : -m s -V 4 -q 2 -lowpass 17 -b 128
Скриншот c названием фильма Скриншоты
Скачать

Скачать торрент!

Как скачивать? · Что такое торрент? · Рейтинг и ограничения

Сайт не распространяет и не хранит электронные версии произведений, а лишь предоставляет доступ к создаваемому пользователями каталогу ссылок на торрент-файлы, которые содержат только списки хеш-сумм

[Профиль] [ЛС]
Показать сообщения:    
Ответить на тему

Текущее время: Сегодня 22:14

Часовой пояс: GMT + 4



Вы не можете начинать темы
Вы не можете отвечать на сообщения
Вы не можете редактировать свои сообщения
Вы не можете удалять свои сообщения
Вы не можете голосовать в опросах
Вы не можете прикреплять файлы к сообщениям
Вы не можете скачивать файлы