Париж: Город мёртвых / As Above, So Below (Джон Эрик Даудл / John Erick Dowdle) [2014, США, ужасы, триллер, BDRip] Dub + Original Eng + sub (rus, eng)

Ответить на тему
 
Автор Сообщение

user ®

Стаж: 7 лет 7 месяцев

Сообщений: 20008

Пост Пост: #1 от 16-Дек-2014 03:00

[Цитировать]

Париж: Город мёртвых / As Above, So Below
Страна: США
Жанр: ужасы, триллер
Год выпуска: 2014
Продолжительность: 01:33:08
Перевод: Профессиональный (дублированный) СЕЕ
Cубтитры: русские (полные, форсированные), английские (полные, SDH), украинские
Оригинальная аудиодорожка: английский (отдельно)
Режиссер: Джон Эрик Даудл / John Erick Dowdle
В ролях: Пердита Викс, Бен Фельдман, Эдвин Ходж, Франсуа Сивиль, Мэрион Ламберт, Али Мархьяр, Косме Кастро, Хамид Джавадан, Тео Чолби, Эми Леви
Описание: Величие Эйфелевой башни и роскошь бутиков, ароматы изысканной кухни и краски Елисейских полей — это лишь саван, под которым скрывается настоящий Париж. Здесь, в бесконечных катакомбах живут истинные владыки этого мира.
Заблудшая душа, добро пожаловать в Город мертвых…

Релиз:
Автор: sociolog_melvas
Сэмпл: http://multi-up.com/1020565
Качество видео: BDRip (источник: HDClub / Blu-ray / 1080р)
Формат видео: AVI
Видео: 704x384 (1.83:1), 23,976 fps, XviD build 65 ~1777 kbps avg, 0.27 bit/pixel
Аудио: 48 kHz, AC3 Dolby Digital, 3/2 (L,C,R,l,r) + LFE ch, ~448 kbps avg
Аудио 2: 48 kHz, AC3 Dolby Digital, 3/2 (L,C,R,l,r) + LFE ch, ~448 kbps avg (ENG) (отдельно)
Формат субтитров: softsub (SRT)
MediaInfo
Format : AVI
Format/Info : Audio Video Interleave
File size : 1.45 GiB
Duration : 1h 33mn
Overall bit rate : 2 235 Kbps
Writing application : VirtualDubMod 1.5.10.2 (build 2540/release)
Video
ID : 0
Format : MPEG-4 Visual
Format profile : Advanced Simple@L5
Format settings, BVOP : Yes
Format settings, QPel : No
Format settings, GMC : No warppoints
Format settings, Matrix : Custom
Codec ID : XVID
Codec ID/Hint : XviD
Duration : 1h 33mn
Bit rate : 1 777 Kbps
Width : 704 pixels
Height : 384 pixels
Display aspect ratio : 16:9
Frame rate : 23.976 fps
Resolution : 8 bits
Colorimetry : 4:2:0
Scan type : Progressive
Bits/(Pixel*Frame) : 0.274
Stream size : 1.15 GiB (80%)
Writing library : XviD 65
Audio
ID : 1
Format : AC-3
Format/Info : Audio Coding 3
Codec ID : 2000
Duration : 1h 33mn
Bit rate mode : Constant
Bit rate : 448 Kbps
Channel(s) : 6 channels
Channel positions : Front: L C R, Surround: L R, LFE
Sampling rate : 48.0 KHz
Stream size : 298 MiB (20%)
Alignment : Split accross interleaves
Interleave, duration : 42 ms (1.00 video frame)
Interleave, preload duration : 500 ms
Скриншот c названием фильма Скриншоты Сравнение
С этим [url=http://***/forum/viewtopic.php?t=4886245]http://***/forum/viewtopic.php?t=4886245[/url] вот здесь http://screenshotcomparison.com/comparison/104413/picture:0
+ обе дороги в 448;
+ дубляж с BD CEE;
+ полный пак субтитров
Скачать

Скачать торрент!

Как скачивать? · Что такое торрент? · Рейтинг и ограничения

Сайт не распространяет и не хранит электронные версии произведений, а лишь предоставляет доступ к создаваемому пользователями каталогу ссылок на торрент-файлы, которые содержат только списки хеш-сумм

[Профиль] [ЛС]
Показать сообщения:    
Ответить на тему

Текущее время: Сегодня 18:04

Часовой пояс: GMT + 4



Вы не можете начинать темы
Вы не можете отвечать на сообщения
Вы не можете редактировать свои сообщения
Вы не можете удалять свои сообщения
Вы не можете голосовать в опросах
Вы не можете прикреплять файлы к сообщениям
Вы не можете скачивать файлы