Санта Мяус / Santa Claws (Гленн Р. Миллер / Glenn R. Miller) [2014, США, комедия, семейный, HDRip] VO (Zamez)

Ответить на тему
 
Автор Сообщение

user ®

Стаж: 7 лет 7 месяцев

Сообщений: 20008

Пост Пост: #1 от 16-Дек-2014 03:00

[Цитировать]

Санта Мяус / Santa Claws
Страна: США
Жанр: комедия, семейный
Год выпуска: 2014
Продолжительность: 1:26:09
Перевод: Одноголосый закадровый - Zamez
Cубтитры: нет
Режиссер: Гленн Р. Миллер / Glenn R. Miller
В ролях: Элза Джеймс Колберт, Никола Ламбо, Джон П.Фоулер, Йен Боумел
Описание: В детстве Джулия разуверилась в Рождестве и по сей день не даёт своему сыну отмечать его, мол это придумали производители игрушек и колы, чтобы денег заработать. Трое отважных котят, малыш Томми, чокнутый сосед мистер Брэмбл и сам Санта докажут Джулии, что она ошибалась.

Качество видео: HDRip
Формат видео: AVI
Видео: XviD, 688 x 384 (16:9), 23.976fps, 1 068 Kbps
Аудио: MP3, 48.000 khz, 2 ch, 128 kbps
MediaInfo
General
Полное имя : Santa.Myaus.2014.HDRip.VO_zames.avi
Формат : AVI
Формат/Информация : Audio Video Interleave
Размер файла : 743 MiB
Продолжительность : 1h 26mn
Общий поток : 1 205 Kbps
Программа кодирования : VirtualDubMod 1.5.10.3 | www.virtualdub-fr.org || (build 2550/release)
Библиотека кодирования : VirtualDubMod build 2550/release
Video
Идентификатор : 0
Формат : MPEG-4 Visual
Профиль формата : Advanced Simple@L5
Параметр BVOP формата : 2
Параметр QPel формата : No
Параметр GMC формата : No warppoints
Параметр матрицы формата : Default (MPEG)
Идентификатор кодека : XVID
Идентификатор кодека/Подсказка : XviD
Продолжительность : 1h 26mn
Битрейт : 1 068 Kbps
Ширина : 688 pixels
Высота : 384 pixels
Соотношение сторон : 16:9
Частота кадров : 23.976 fps
Цветовое пространство : YUV
Субдискретизация насыщенности : 4:2:0
Битовая глубина : 8 bits
Тип развёртки : Progressive
Метод сжатия : Lossy
Бит/(Пиксели*Кадры) : 0.169
Размер потока : 658 MiB (89%)
Библиотека кодирования : XviD 1.2.1 (UTC 2008-12-04)
Audio
Идентификатор : 1
Формат : MPEG Audio
Версия формата : Version 1
Профиль формата : Layer 3
Идентификатор кодека : 55
Идентификатор кодека/Подсказка : MP3
Продолжительность : 1h 26mn
Вид битрейта : Constant
Битрейт : 128 Kbps
Каналы : 2 channels
Частота : 48.0 KHz
Метод сжатия : Lossy
Размер потока : 78.9 MiB (11%)
Выравнивание : Aligned on interleaves
Продолжительность промежутка : 42 ms (1.00 video frame)
Время предзагрузки промежутка : 504 ms
Библиотека кодирования : LAME3.99r
Настройки программы : -m s -V 4 -q 2 -lowpass 17 -b 128
Скриншот c названием фильма Скриншоты
Скачать

Скачать торрент!

Как скачивать? · Что такое торрент? · Рейтинг и ограничения

Сайт не распространяет и не хранит электронные версии произведений, а лишь предоставляет доступ к создаваемому пользователями каталогу ссылок на торрент-файлы, которые содержат только списки хеш-сумм

[Профиль] [ЛС]
Показать сообщения:    
Ответить на тему

Текущее время: Сегодня 14:11

Часовой пояс: GMT + 4



Вы не можете начинать темы
Вы не можете отвечать на сообщения
Вы не можете редактировать свои сообщения
Вы не можете удалять свои сообщения
Вы не можете голосовать в опросах
Вы не можете прикреплять файлы к сообщениям
Вы не можете скачивать файлы