Подарок на Рождество 2 / Jingle All the Way 2 (Алекс Замм / Alex Zamm) [2014, США, комедия, семейный, WEB-DLRip] MVO

Ответить на тему
 
Автор Сообщение

user ®

Стаж: 7 лет 7 месяцев

Сообщений: 20008

Пост Пост: #1 от 16-Дек-2014 03:00

[Цитировать]

Подарок на Рождество 2 / Jingle All the Way 2
Страна: США
Жанр: комедия, семейный
Год выпуска: 2014
Продолжительность: 1:33:28
Перевод: Профессиональный (многоголосый закадровый)
Cубтитры: нет
Режиссер: Алекс Замм / Alex Zamm
В ролях: Ларри-кабельщик, Брайан Степанек, Кеннеди Клементс, Линдсэй Максвелл, Кирстен Робек, Дэвид Милчард, Мередит МакГичи, Мэтти Финочио, Алекс Замм, Грэйсин Шиней
Описание: Когда новый мэр приезжает в город и грозит отнять любимый праздник Ларри, Рождество. Ларри ставит своей целью вернуть праздник.

Качество видео: WEB-DLRip
Формат видео: AVI
Видео: XviD, 720 x 400 (16:9), 23.976 fps, 1 892 Kbps, 0.274 bit/pixel
Аудио: AC3, 48.0 KHz, 2 ch, 192 Kbps
MediaInfo
General
Полное имя : nogapok_Ha_pozhgecmBo_2_web-dlrip_2014.avi
Формат : AVI
Формат/Информация : Audio Video Interleave
Размер файла : 1.37 GiB
Продолжительность : 1h 33mn
Общий поток : 2 093 Kbps
Программа кодирования : VirtualDubMod 1.5.10.2 (build 2540/release)
Библиотека кодирования : VirtualDubMod build 2540/release
Video
Идентификатор : 0
Формат : MPEG-4 Visual
Профиль формата : Advanced Simple@L5
Параметр BVOP формата : 2
Параметр QPel формата : No
Параметр GMC формата : No warppoints
Параметр матрицы формата : Default (MPEG)
Идентификатор кодека : XVID
Идентификатор кодека/Подсказка : XviD
Продолжительность : 1h 33mn
Битрейт : 1 892 Kbps
Ширина : 720 pixels
Высота : 400 pixels
Соотношение сторон : 16:9
Частота кадров : 23.976 fps
Цветовое пространство : YUV
Субдискретизация насыщенности : 4:2:0
Битовая глубина : 8 bits
Тип развёртки : Progressive
Метод сжатия : Lossy
Бит/(Пиксели*Кадры) : 0.274
Размер потока : 1.24 GiB (90%)
Библиотека кодирования : XviD 1.2.1 (UTC 2008-12-04)
Audio
Идентификатор : 1
Формат : AC-3
Формат/Информация : Audio Coding 3
Расширение режима : CM (complete main)
Параметр Endianness формата : Big
Идентификатор кодека : 2000
Продолжительность : 1h 33mn
Вид битрейта : Constant
Битрейт : 192 Kbps
Каналы : 2 channels
Расположение каналов : Front: L R
Частота : 48.0 KHz
Битовая глубина : 16 bits
Метод сжатия : Lossy
Размер потока : 128 MiB (9%)
Выравнивание : Split accross interleaves
Продолжительность промежутка : 42 ms (1.00 video frame)
Время предзагрузки промежутка : 500 ms
Скриншот c названием фильма Скриншоты
Скачать

Скачать торрент!

Как скачивать? · Что такое торрент? · Рейтинг и ограничения

Сайт не распространяет и не хранит электронные версии произведений, а лишь предоставляет доступ к создаваемому пользователями каталогу ссылок на торрент-файлы, которые содержат только списки хеш-сумм

[Профиль] [ЛС]
Показать сообщения:    
Ответить на тему

Текущее время: Сегодня 20:14

Часовой пояс: GMT + 4



Вы не можете начинать темы
Вы не можете отвечать на сообщения
Вы не можете редактировать свои сообщения
Вы не можете удалять свои сообщения
Вы не можете голосовать в опросах
Вы не можете прикреплять файлы к сообщениям
Вы не можете скачивать файлы