Как умирают в больнице / Dying at a Hospital / Byoin de shinu to iu koto (Дзюн Итикава / Jun Ichikawa) [1993, Япония, драма, DVDRip] (Rus) (Eng) + Sub

Ответить на тему
 
Автор Сообщение

user ®

Стаж: 13 лет

Сообщений: 15071

Пост Пост: #1 от 15-Дек-2014 12:35

[Цитировать]

Как умирают в больнице / Dying at a Hospital / Byoin de shinu to iu koto / 病院で死ぬということ
Страна: Япония
Жанр: драма
Год выпуска: 1993
Продолжительность: 01:39:27
Перевод 1: Субтитры русские - [url=http://***/forum/tracker.php?rid=6473541]дед_сто_лет[/url]©
Перевод 2: Субтитры английские - lordretsudo
Оригинальная аудиодорожка: японский
Режиссер: [url=http://***/forum/tracker.php?nm=Jun%20Ichikawa]Дзюн Итикава / Jun Ichikawa[/url]
В ролях: Иттоку КИСИБЭ, Масаюки СИОНОЯ, Акира ЯМАНОУТИ, Икуё ИСИИ, Таэко СИМИДЗУ, Хироси СИМИДЗУ, Рэйко НАНАО, Яэ ХАСИМОТО, Хироси ТАМУРА
Описание: По мотивам книги Фумио ЯМАДЗАКИ. Доктор Ямаока каждый день сталкивается со смертельными болезнями. Его пациентам придется пережить шок, раздражение, депрессию и смирение. Но идея смерти оказывается для многих из них спасительной. Эта жестокая и умиротворяющая одноврменно лента основана на экспериментальном приеме комбинирования игрового и документального кино, которая рождает удивительное чувство жизненной правды.©
> > > > > > >
Качество видео: DVDRip
Формат видео: AVI
Видео: 720x400 (1.80:1), 29.970 fps, XviD build 50 ~1138 kbps avg, 0.13 bit/pixel
Аудио: 48 kHz, MPEG Layer 3, 2 ch, ~192.00 kbps avg
Формат субтитров: softsub (SRT)
Доп. информация о субтитрах: дед_сто_лет
Пример субтитров
177
00:33:01,146 --> 00:33:06,687
В молодости люди восхищались...
178
00:33:06,718 --> 00:33:11,827
... какие у меня сильные мускулистые ноги.
179
00:33:11,857 --> 00:33:16,272
Я был спортсменом.
Бегал на 3 тысячи метров...
180
00:33:16,294 --> 00:33:19,605
и на 1500 метров.
181
00:33:19,798 --> 00:33:22,677
Кстати, боли вас беспокоят?
182
00:33:27,405 --> 00:33:34,084
Иногда сильно болит,
но я могу терпеть...
183
00:33:34,913 --> 00:33:38,690
... мне помогают лекарства,
которые вы даёте.
184
00:33:53,131 --> 00:33:59,082
- Опять переезжаете к жене?
- Да.
185
00:34:06,344 --> 00:34:09,757
(решает кроссворд)
186
00:34:28,600 --> 00:34:30,841
Больно.
187
00:34:33,238 --> 00:34:36,742
Болит...
188
00:34:46,885 --> 00:34:50,196
Потише.
189
00:34:56,161 --> 00:34:58,971
Потише.
190
00:35:25,390 --> 00:35:28,803
Мне не становится лучше.
191
00:35:30,262 --> 00:35:34,506
Да? Вы так думаете?
192
00:35:43,341 --> 00:35:49,815
Может в моем состоянии
это ни к чему...
193
00:35:50,582 --> 00:35:56,658
... но я хотел бы увидеться
с женой, хотя бы ещё раз.
194
00:36:08,867 --> 00:36:12,212
Я хочу увидеть Хидэко...
195
00:36:14,406 --> 00:36:18,877
... пока я ещё могу ходить.
196
00:36:24,783 --> 00:36:27,696
Мы его семья...
197
00:36:28,954 --> 00:36:35,200
... и мы уважаем желания отца.
198
00:36:35,226 --> 00:36:40,733
Мама уже не может передвигаться.
MediaInfo
General
Complete name : C:\Torrents\[ASIA]\Dying_at_Hospital(1993)Jun.Ichikawa\Dying_at_Hospital(1993)Jun.Ichikawa.avi
Format : AVI
Format/Info : Audio Video Interleave
File size : 953 MiB
Duration : 1h 39mn
Overall bit rate : 1 339 Kbps
Writing application : VirtualDubMod 1.5.4.1 (build 2178/release)
Writing library : VirtualDubMod build 2178/release
Video
ID : 0
Format : MPEG-4 Visual
Format profile : Advanced Simple@L5
Format settings, BVOP : 1
Format settings, QPel : No
Format settings, GMC : No warppoints
Format settings, Matrix : Custom
Codec ID : XVID
Codec ID/Hint : XviD
Duration : 1h 39mn
Bit rate : 1 138 Kbps
Width : 720 pixels
Height : 400 pixels
Display aspect ratio : 16:9
Frame rate : 29.970 fps
Color space : YUV
Chroma subsampling : 4:2:0
Bit depth : 8 bits
Scan type : Progressive
Compression mode : Lossy
Bits/(Pixel*Frame) : 0.132
Stream size : 810 MiB (85%)
Writing library : XviD 1.2.1 (UTC 2008-12-04)
Audio
ID : 1
Format : MPEG Audio
Format version : Version 1
Format profile : Layer 3
Mode : Joint stereo
Mode extension : MS Stereo
Codec ID : 55
Codec ID/Hint : MP3
Duration : 1h 39mn
Bit rate mode : Constant
Bit rate : 192 Kbps
Channel(s) : 2 channels
Sampling rate : 48.0 KHz
Compression mode : Lossy
Stream size : 137 MiB (14%)
Alignment : Aligned on interleaves
Interleave, duration : 67 ms (2.00 video frames)
Interleave, preload duration : 504 ms
Writing library : LAME3.98r
Encoding settings : -m j -V 4 -q 2 -lowpass 18.6 -b 192
Language : Japanese
Скриншот c названием фильма Скриншоты
Скачать

Скачать торрент! Как умирают в больнице / Dying at a Hospital / Byoin de shinu to iu koto (Дзюн Итикава / Jun Ichikawa) [1993, Япония, драма, DVDRip] (Rus) (Eng) + Sub

Как скачивать? · Что такое торрент? · Рейтинг и ограничения

Сайт не распространяет и не хранит электронные версии произведений, а лишь предоставляет доступ к создаваемому пользователями каталогу ссылок на торрент-файлы, которые содержат только списки хеш-сумм

[Профиль] [ЛС]
Показать сообщения:    
Ответить на тему

Текущее время: Сегодня 12:19

Часовой пояс: GMT + 4



Вы не можете начинать темы
Вы не можете отвечать на сообщения
Вы не можете редактировать свои сообщения
Вы не можете удалять свои сообщения
Вы не можете голосовать в опросах
Вы не можете прикреплять файлы к сообщениям
Вы не можете скачивать файлы