Видимость гнева / The Upside of Anger (Майк Байндер / Mike Binder) [2005, США, Германия, Великобритания, драма, комедия, BDRip 720p] 2x DVO (R5, Tycoon) + AVO (Рудой) + Ukr + Original Eng + Comm + subs (Rus, Eng)

Ответить на тему
 
Автор Сообщение

user ®

Стаж: 7 лет 7 месяцев

Сообщений: 20008

Пост Пост: #1 от 14-Дек-2014 22:10

[Цитировать]

Видимость гнева / The Upside of Anger- Год выпуска: 2005
Страна: США, Германия, Великобритания
Жанр: драма, комедия
Продолжительность: 01:56:47
Перевод: Профессиональный (двухголосый, закадровый) R5
+ Профессиональный (двухголосый, закадровый) Tycoon
+ Авторский (одноголосый закадровый) Е.Рудой
Оригинальная звуковая дорожка: English
Субтитры: Russian, English-Режиссер: Майк Байндер / Mike Binder
В ролях: Джоан Аллен, Кевин Костнер, Эрика Кристенсен, Кери Рассел, Алисия Уитт, Эван Рэйчел Вуд, Майк Байндер, Том Харпер, Дэйн Кристенсен, Дэниэл Уэбб
О фильме: После неожиданного исчезновения мужа и главы семейства Тери Вольфмайер, обычная провинциальная домохозяйка, вынуждена в одиночку заботиться сразу о четырех дочках. Постепенно, для растерянной Терри единственным утешением становится алкоголь. Но однажды Терри знакомится с соседом по имени Дэнни, бывшим бейсболистом, а ныне ведущим на радио.
Терри серьезно влюбляется в своего нового друга. Он возвращает ей волю к жизни и частично заменяет дочерям Терри отца. Но девочки решают обернуть ситуацию в свою пользу. Они оказываются в трудном положении, так как с этих пор им приходится решать не только свои проблемы, но и проблемы матери. Ситуация осложняется, когда Терри обнаруживает, что привязанность ее детей к Дэнни идет в разрез с ее собственными интересами...
Релиз:
Формат: MKV
Видео: 1280x544 at 23.976 fps, x264, ~4924 kbps avg
Аудио #01: Russian: 48 kHz, AC3, 2/0 (L,R) ch, ~192 kbps avg |Двухголосый закадровый, R5|
Аудио #02: Russian: 48 kHz, AC3, 2/0 (L,R) ch, ~192 kbps avg |Двухголосый закадровый, Tycoon|
Аудио #03: Russian : 48 kHz, AC3, 3/2 (L,C,R,l,r) + LFE ch, ~384 kbps avg |Одноголосый закадровый, Е. Рудой|
Аудио #04: Ukrainian: 48 kHz, AC3, 2/0 (L,R) ch, ~192 kbps avg |Двухголосый закадровый, К1|
Аудио #05: English: 48 kHz, AC3, 3/2 (L,C,R,l,r) + LFE ch, ~640 kbps avg
Аудио #06: English: 48 kHz, AAC, 2/0 (L,R) ch, ~94 kbps avg |Commentary|
Семпл-

Source vs Encode
-
mInfo
Формат : Matroska
Версия формата : Version 4 / Version 2
Размер файла : 5,40 Гбайт
Продолжительность : 1 ч. 56 м.
Общий поток : 6621 Кбит/сек
Дата кодирования : UTC 2014-12-13 15:40:57
Программа кодирования : mkvmerge v6.1.0 ('Old Devil') built on Mar 2 2013 14:32:37
Библиотека кодирования : libebml v1.3.0 + libmatroska v1.4.0
Видео
Идентификатор : 1
Формат : AVC
Формат/Информация : Advanced Video Codec
Профиль формата : High@L4.1
Параметр CABAC формата : Да
Параметр ReFrames формата : 12 кадров
Идентификатор кодека : V_MPEG4/ISO/AVC
Продолжительность : 1 ч. 56 м.
Ширина : 1280 пикселей
Высота : 544 пикселя
Соотношение сторон : 2,35:1
Режим частоты кадров : Постоянный
Частота кадров : 23,976 кадра/сек
Цветовое пространство : YUV
Субдискретизация насыщенности : 4:2:0
Битовая глубина : 8 бит
Тип развёртки : Прогрессивная
Заголовок : The Upside of Anger (2005)
Библиотека кодирования : x264 core 142 r2431kMod ac76440
Настройки программы : cabac=1 / ref=12 / deblock=1:-3:-3 / analyse=0x3:0x133 / me=umh / subme=11 / psy=1 / fade_compensate=0.00 / psy_rd=1.00:0.00 / mixed_ref=1 / me_range=64 / chroma_me=1 / trellis=2 / 8x8dct=1 / cqm=0 / deadzone=21,11 / fast_pskip=0 / chroma_qp_offset=-2 / threads=12 / lookahead_threads=1 / sliced_threads=0 / nr=0 / decimate=0 / interlaced=0 / bluray_compat=0 / constrained_intra=0 / fgo=0 / bframes=6 / b_pyramid=2 / b_adapt=2 / b_bias=0 / direct=3 / weightb=1 / open_gop=0 / weightp=2 / keyint=250 / keyint_min=23 / scenecut=40 / intra_refresh=0 / rc_lookahead=40 / rc=crf / mbtree=0 / crf=17.0000 / qcomp=0.75 / qpmin=0 / qpmax=69 / qpstep=4 / vbv_maxrate=50000 / vbv_bufsize=62500 / crf_max=0.0 / nal_hrd=none / filler=0 / ip_ratio=1.35 / pb_ratio=1.25 / aq=3:0.60
Язык : English
Default : Нет
Forced : Нет
Основные цвета : BT.709
Характеристики трансфера : BT.709
Коэффициенты матрицы : BT.709
Аудио #1
Идентификатор : 2
Формат : AC-3
Формат/Информация : Audio Coding 3
Расширение режима : CM (complete main)
Параметр Endianness формата : Big
Идентификатор кодека : A_AC3
Продолжительность : 1 ч. 56 м.
Вид битрейта : Постоянный
Битрейт : 192 Кбит/сек
Каналы : 2 канала
Расположение каналов : Front: L R
Частота : 48,0 КГц
Битовая глубина : 16 бит
Метод сжатия : С потерями
Размер потока : 160 Мбайт (3%)
Заголовок : AC3 2.0 @ 192 kbps - Двухголосый закадровый, R5
Язык : Russian
Default : Да
Forced : Нет
Аудио #2
Идентификатор : 3
Формат : AC-3
Формат/Информация : Audio Coding 3
Расширение режима : CM (complete main)
Параметр Endianness формата : Big
Идентификатор кодека : A_AC3
Продолжительность : 1 ч. 56 м.
Вид битрейта : Постоянный
Битрейт : 192 Кбит/сек
Каналы : 2 канала
Расположение каналов : Front: L R
Частота : 48,0 КГц
Битовая глубина : 16 бит
Метод сжатия : С потерями
Размер потока : 160 Мбайт (3%)
Заголовок : AC3 2.0 @ 192 kbps - Двухголосый закадровый, Tycoon
Язык : Russian
Default : Нет
Forced : Нет
Аудио #3
Идентификатор : 4
Формат : AC-3
Формат/Информация : Audio Coding 3
Расширение режима : CM (complete main)
Параметр Endianness формата : Big
Идентификатор кодека : A_AC3
Продолжительность : 1 ч. 56 м.
Вид битрейта : Постоянный
Битрейт : 384 Кбит/сек
Каналы : 6 каналов
Расположение каналов : Front: L C R, Side: L R, LFE
Частота : 48,0 КГц
Битовая глубина : 16 бит
Метод сжатия : С потерями
Размер потока : 321 Мбайт (6%)
Заголовок : AC3 5.1 @ 384 kbps - Одноголосый закадровый, Е. Рудой
Язык : Russian
Default : Нет
Forced : Нет
Аудио #4
Идентификатор : 5
Формат : AC-3
Формат/Информация : Audio Coding 3
Расширение режима : CM (complete main)
Параметр Endianness формата : Big
Идентификатор кодека : A_AC3
Продолжительность : 1 ч. 56 м.
Вид битрейта : Постоянный
Битрейт : 192 Кбит/сек
Каналы : 2 канала
Расположение каналов : Front: L R
Частота : 48,0 КГц
Битовая глубина : 16 бит
Метод сжатия : С потерями
Размер потока : 160 Мбайт (3%)
Заголовок : AC3 2.0 @ 192 kbps - Двухголосый закадровый, К1
Язык : Ukrainian
Default : Нет
Forced : Нет
Аудио #5
Идентификатор : 6
Формат : AC-3
Формат/Информация : Audio Coding 3
Расширение режима : CM (complete main)
Параметр Endianness формата : Big
Идентификатор кодека : A_AC3
Продолжительность : 1 ч. 56 м.
Вид битрейта : Постоянный
Битрейт : 640 Кбит/сек
Каналы : 6 каналов
Расположение каналов : Front: L C R, Side: L R, LFE
Частота : 48,0 КГц
Битовая глубина : 16 бит
Метод сжатия : С потерями
Размер потока : 535 Мбайт (10%)
Заголовок : AC3 5.1 @ 640 kbps
Язык : English
Default : Нет
Forced : Нет
Аудио #6
Идентификатор : 7
Формат : AAC
Формат/Информация : Advanced Audio Codec
Профиль формата : LC
Идентификатор кодека : A_AAC
Продолжительность : 1 ч. 56 м.
Каналы : 2 канала
Расположение каналов : Front: L R
Частота : 48,0 КГц
Метод сжатия : С потерями
Заголовок : Commentary AAC 2.0 @ 94 kbps
Язык : English
Default : Нет
Forced : Нет
Текст #1
Идентификатор : 8
Формат : UTF-8
Идентификатор кодека : S_TEXT/UTF8
Идентификатор кодека/Информация : UTF-8 Plain Text
Язык : Russian
Default : Нет
Forced : Нет
Текст #2
Идентификатор : 9
Формат : UTF-8
Идентификатор кодека : S_TEXT/UTF8
Идентификатор кодека/Информация : UTF-8 Plain Text
Язык : English
Default : Нет
Forced : Нет
Меню
00:00:00.000 : en:00:00:00.000
00:08:21.334 : en:00:08:21.334
00:16:09.093 : en:00:16:09.093
00:24:54.660 : en:00:24:54.660
00:33:03.064 : en:00:33:03.064
00:42:59.035 : en:00:42:59.035
00:50:40.746 : en:00:50:40.746
00:58:03.230 : en:00:58:03.230
01:07:01.309 : en:01:07:01.309
01:14:15.910 : en:01:14:15.910
01:22:03.168 : en:01:22:03.168
01:29:08.218 : en:01:29:08.218
01:38:09.050 : en:01:38:09.050
01:46:26.797 : en:01:46:26.797

-
Цитата:
* Сохранены оригинальные чаптеры как на Blu-ray.
* Исходный диск приобретен в рамках сервиса "Копилка: Помоги с Blu-ray". Благодарим: irrlicht, gelom, tambov68.
Скачать

Скачать торрент!

Как скачивать? · Что такое торрент? · Рейтинг и ограничения

Сайт не распространяет и не хранит электронные версии произведений, а лишь предоставляет доступ к создаваемому пользователями каталогу ссылок на торрент-файлы, которые содержат только списки хеш-сумм

[Профиль] [ЛС]
Показать сообщения:    
Ответить на тему

Текущее время: Сегодня 06:27

Часовой пояс: GMT + 4



Вы не можете начинать темы
Вы не можете отвечать на сообщения
Вы не можете редактировать свои сообщения
Вы не можете удалять свои сообщения
Вы не можете голосовать в опросах
Вы не можете прикреплять файлы к сообщениям
Вы не можете скачивать файлы