Царевич Алексей (Виталий Мельников) [1997, историческая драма, DVDRip-AVC]

Ответить на тему
 
Автор Сообщение

user ®

Стаж: 7 лет 7 месяцев

Сообщений: 20008

Пост Пост: #1 от 14-Дек-2014 22:10

[Цитировать]

Царевич Алексей (2 серии)- Жанр: историческая драма
Год выпуска: 1997 (редакция 2007 г.)
Продолжительность: 01:44:02 (00:52:00 + 00:52:02)-Режиссёр: Виталий Мельников-В ролях:
Виктор Степанов, Алексей Зуев, Станислав Любшин, Екатерина Кулакова, Владимир Меньшов, Наталья Егорова, Федор Стуков, Роман Громадский, Михаил Кононов
Описание:
Первый фильм исторической трилогии Виталия Мельникова «Империя. Начало». Вторая хронологическая часть - [url=http://***/forum/tracker.php?nm=%D0%A6%D0%B0%D1%80%D1%81%D0%BA%D0%B0%D1%8F%20%D0%BE%D1%85%D0%BE%D1%82%D0%B0%20%D0%92%D0%B8%D1%82%D0%B0%D0%BB%D0%B8%D0%B9%20%D0%9C%D0%B5%D0%BB%D1%8C%D0%BD%D0%B8%D0%BA%D0%BE%D0%B2]«Царская охота»[/url], заключительная - [url=http://***/forum/tracker.php?nm=%D0%91%D0%B5%D0%B4%D0%BD%D1%8B%D0%B9%20%D0%B1%D0%B5%D0%B4%D0%BD%D1%8B%D0%B9%20%D0%9F%D0%B0%D0%B2%D0%B5%D0%BB%20%D0%92%D0%B8%D1%82%D0%B0%D0%BB%D0%B8%D0%B9%20%D0%9C%D0%B5%D0%BB%D1%8C%D0%BD%D0%B8%D0%BA%D0%BE%D0%B2]«Бедный, бедный Павел»[/url]. В центре повествования - драматические отношения Петра I и его сына. Многие считали Алексея одним из умнейших в государстве. Петр прочил ему трон, но наследник престола всеми силами стремился оставаться вне власти и желал обыкновенного человеческого счастья. После отречения Алексея от престола наследником был назначен малолетний Пётр Петрович. В результате дворцовых интриг Алексей был оклеветан и замучен собственным отцом, его единомышленники казнены.-[url=http://***/forum/viewtopic.php?t=3015815]Исходник[/url] | Сэмпл | Кинопоиск-Качество видео: DVDRip-AVC, спасибо mapcik3 за исходный DVD.
Формат видео: MKV
Видео: x264 (High@L4.1); 718@765x460, Display aspect ratio 1.663:1, 25.000 fps, 2275 Kbps
Аудио: Оригинал: AC-3; 16 bits 48 Khz; 2.0 ch 192 Kbps; CBR
Дополнительная информация
* Внешне благополучный исходник на поверку оказался дырявым. Обделённые битрейтом многочисленные тёмные сцены изобилуют блоками, поэтому дополнительное вливание битрейта по сути бесмысленно. К сожалению, разбитие блоков не делает просмотр комфортнее, вынужден был отказаться. Пруф здесь: http://multi-up.com/1020505 ** Иногда появляются вертикальные полосы по правому краю. Явление неповсеместное, оставлено как есть.
MediaInfo
-
x264 log
avs [info]: 718x460p 16:15 @ 25/1 fps (cfr)
x264 [info]: using SAR=16/15
x264 [info]: using cpu capabilities: MMX2 SSE2Fast SSSE3 SSE4.2
x264 [info]: profile High, level 4.1
x264 [info]: frame I:791 Avg QP:15.09 size: 63697
x264 [info]: frame P:29885 Avg QP:16.96 size: 25694
x264 [info]: frame B:125385 Avg QP:18.91 size: 7631
x264 [info]: consecutive B-frames: 1.0% 1.7% 5.2% 10.5% 11.9% 57.3% 6.5% 2.3% 0.9% 0.3% 0.6% 0.7% 0.1% 0.2% 0.9%
x264 [info]: mb I I16..4: 8.7% 70.4% 20.8%
x264 [info]: mb P I16..4: 0.3% 14.4% 1.2% P16..4: 25.9% 32.5% 17.3% 3.1% 0.4% skip: 5.0%
x264 [info]: mb B I16..4: 0.1% 2.0% 0.1% B16..8: 27.6% 19.2% 3.9% direct:11.5% skip:35.5% L0:34.0% L1:33.4% BI:32.6%
x264 [info]: 8x8 transform intra:88.4% inter:51.7%
x264 [info]: coded y,uvDC,uvAC intra: 94.9% 88.1% 69.5% inter: 34.5% 27.1% 5.1%
x264 [info]: i16 v,h,dc,p: 57% 5% 13% 25%
x264 [info]: i8 v,h,dc,ddl,ddr,vr,hd,vl,hu: 12% 8% 14% 9% 11% 11% 10% 12% 12%
x264 [info]: i4 v,h,dc,ddl,ddr,vr,hd,vl,hu: 16% 8% 7% 8% 13% 14% 11% 11% 11%
x264 [info]: i8c dc,h,v,p: 40% 25% 22% 13%
x264 [info]: Weighted P-Frames: Y:2.9% UV:0.4%
x264 [info]: ref P L0: 35.2% 11.0% 18.9% 5.2% 6.5% 3.7% 4.3% 2.0% 2.5% 1.7% 2.1% 1.4% 1.8% 1.2% 1.5% 0.9%
x264 [info]: ref B L0: 82.1% 9.3% 2.3% 1.3% 0.9% 0.9% 0.6% 0.5% 0.4% 0.4% 0.3% 0.4% 0.3% 0.2% 0.1%
x264 [info]: ref B L1: 97.1% 2.9%
x264 [info]: kb/s:2274.83
x264 [total]: encoded 156061 frames, 11.72 fps, 2274.83 kb/s
-General
Unique ID : 212865978222806281350187681208264749323 (0xA0247F045878596294C5F6CD53FAF10B)
Complete name : Царевич Алексей.1997.mkv
Format : Matroska
Format version : Version 2
File size : 1.79 GiB
Duration : 1h 44mn
Overall bit rate : 2 469 Kbps
Movie name : «Царевич Алексей»
Encoded date : UTC 2014-12-13 18:27:11
Writing application : mkvmerge v5.8.0 ('No Sleep / Pillow') built on Sep 2 2012 15:37:04
Writing library : libebml v1.2.3 + libmatroska v1.3.0
Comment : DVDRip-AVC
Originally released : December 13th 2014
Encoded by : george$t®
Video
ID : 1
Format : AVC
Format/Info : Advanced Video Codec
Format profile : High@L4.1
Format settings, CABAC : Yes
Format settings, ReFrames : 16 frames
Codec ID : V_MPEG4/ISO/AVC
Duration : 1h 44mn
Bit rate : 2 227 Kbps
Width : 718 pixels
Height : 460 pixels
Display aspect ratio : 1.663
Original display aspect ratio : 1.665
Frame rate mode : Constant
Frame rate : 25.000 fps
Color space : YUV
Chroma subsampling : 4:2:0
Bit depth : 8 bits
Scan type : Progressive
Bits/(Pixel*Frame) : 0.270
Stream size : 1.62 GiB (90%)
Title : Царевич Алексей.1997
Writing library : x264 core 130 r2273 b3065e6
Encoding settings : cabac=1 / ref=16 / deblock=1:-2:-2 / analyse=0x3:0x133 / me=umh / subme=11 / psy=1 / psy_rd=1.05:0.10 / mixed_ref=1 / me_range=64 / chroma_me=1 / trellis=2 / 8x8dct=1 / cqm=0 / deadzone=21,11 / fast_pskip=1 / chroma_qp_offset=-3 / threads=12 / lookahead_threads=3 / sliced_threads=0 / nr=0 / decimate=1 / interlaced=0 / bluray_compat=0 / constrained_intra=0 / bframes=14 / b_pyramid=2 / b_adapt=2 / b_bias=0 / direct=1 / weightb=1 / open_gop=0 / weightp=2 / keyint=250 / keyint_min=25 / scenecut=40 / intra_refresh=0 / rc_lookahead=60 / rc=crf / mbtree=1 / crf=17.2 / qcomp=0.75 / qpmin=0 / qpmax=32 / qpstep=4 / vbv_maxrate=62500 / vbv_bufsize=78125 / crf_max=0.0 / nal_hrd=none / ip_ratio=1.30 / aq=1:1.00
Language : Russian
Default : Yes
Forced : No
Color primaries : BT.601 PAL
Transfer characteristics : BT.470 System B, BT.470 System G
Matrix coefficients : BT.601
Audio
ID : 2
Format : AC-3
Format/Info : Audio Coding 3
Mode extension : CM (complete main)
Format settings, Endianness : Big
Codec ID : A_AC3
Duration : 1h 44mn
Bit rate mode : Constant
Bit rate : 192 Kbps
Channel(s) : 2 channels
Channel positions : Front: L R
Sampling rate : 48.0 KHz
Bit depth : 16 bits
Compression mode : Lossy
Stream size : 143 MiB (8%)
Title : Оригинал: AC-3; 16 bit 48 Khz; 2.0 ch 192 Kbps; CBR
Language : Russian
Default : Yes
Forced : No
Скриншоты
vs. source
http://screenshotcomparison.com/comparison/104308
vs. dvdrip
[url=http://***/forum/viewtopic.php?t=3162061]http://***/forum/viewtopic.php?t=3162061[/url]
http://screenshotcomparison.com/comparison/104309
Скачать

Скачать торрент!

Как скачивать? · Что такое торрент? · Рейтинг и ограничения

Сайт не распространяет и не хранит электронные версии произведений, а лишь предоставляет доступ к создаваемому пользователями каталогу ссылок на торрент-файлы, которые содержат только списки хеш-сумм

[Профиль] [ЛС]
Показать сообщения:    
Ответить на тему

Текущее время: Сегодня 13:39

Часовой пояс: GMT + 4



Вы не можете начинать темы
Вы не можете отвечать на сообщения
Вы не можете редактировать свои сообщения
Вы не можете удалять свои сообщения
Вы не можете голосовать в опросах
Вы не можете прикреплять файлы к сообщениям
Вы не можете скачивать файлы