Девушка-скелет (Стефания Двояк) [2012, Анимационный фильм, DVDScreener]

Ответить на тему
 
Автор Сообщение

user ®

Стаж: 7 лет 7 месяцев

Сообщений: 20008

Пост Пост: #1 от 14-Дек-2014 19:00

[Цитировать]

Девушка-скелет
Страна: Россия
Жанр: Анимационный фильм
Продолжительность: 00:07:14
Год выпуска: 2012
Русские субтитры: нет
Режиссёр: Стефания Двояк
Описание: «Девушка-скелет» - фильм, основанный на тексте эскимосской легенды. За какую-то провинность разгневанный отец бросает свою дочь в море. Девушка тонет и превращается в скелет. Много лет спустя молодой рыбак случайно поднимает ее останки с морского дна. Испугавшись «призрака», рыбак убегает и, не замечая этого, на крючке приносит кости в свою хижину, находящуюся внутри гигантской рыбы. Разобравшись, что скелет не представляет для него опасности, герой успокаивается и даже помогает мертвецу, заново собирая распадающийся на части скелет. Погибшая девушка видит тоску в сердце эскимоса. Чтобы развеять ее, она вынимает «гулкий бубен» из груди своего спасителя и вновь преображает себя в красавицу, какой когда-то была. Проснувшийся рыбак, увидев подобное превращение, забывает свою печаль, и живут они вместе долго и счастливо.
Доп. информация: Открытый фестиваль анимационного кино, Суздаль (Россия), 2013
Открытый Фестиваль студенческих и дебютных фильмов «Святая Анна», Москва (Россия), 2013
Festival des Films de Russie et d'Ailleurs, Женева - Лозанна (Швейцария), 2013
Международный фестиваль ВГИК, Москва (Россия), 2012
Международный фестиваль-практикум киношкол “Кинопроба”, Екатеринбург (Россия), 2012
Московский фестиваля короткометражных фильмов ''Дебютное кино'' : МФКФ, Москва (Россия), 2012
Качество: DVDScreener
Формат: AVI
Видео: DIVX, 720x416, 25fps, 1401kbps
Аудио: MPEG Layer 3, 48kHz, 2ch, 192kbps
Субтитры: отсутствуют
Подробные технические данные
Полное имя : Девушка-скелет.aviФормат : AVIФормат/Информация : Audio Video InterleaveРазмер файла : 83,1 МбайтПродолжительность : 7 м. 14 с.Общий поток : 1603 Кбит/секПрограмма кодирования : VirtualDubMod 1.5.10.3 | www.virtualdub-fr.org || (build 2550/release)Библиотека кодирования : VirtualDubMod build 2550/release
ВидеоИдентификатор : 0Формат : MPEG-4 VisualПрофиль формата : Advanced Simple@L5Параметр BVOP формата : 1Параметр QPel формата : НетПараметр GMC формата : Без точки переходаПараметр матрицы формата : Default (H.263)Идентификатор кодека : DIVXИдентификатор кодека/Информация : Project MayoИдентификатор кодека/Подсказка : DivX 4Продолжительность : 7 м. 14 с.Битрейт : 1401 Кбит/секШирина : 720 пикселейВысота : 416 пикселейСоотношение сторон : 1,731Частота кадров : 25,000 кадров/секЦветовое пространство : YUVСубдискретизация насыщенности : 4:2:0Битовая глубина : 8 битТип развёртки : ПрогрессивнаяМетод сжатия : С потерямиБит/(Пиксели*Кадры) : 0.187Размер потока : 72,6 Мбайт (87%)Библиотека кодирования : XviD 1.2.1 (UTC 2008-12-04)
АудиоИдентификатор : 1Формат : MPEG AudioВерсия формата : Version 1Профиль формата : Layer 3Идентификатор кодека : 55Идентификатор кодека/Подсказка : MP3Продолжительность : 7 м. 14 с.Вид битрейта : ПостоянныйБитрейт : 192 Кбит/секКаналы : 2 каналаЧастота : 48,0 КГцМетод сжатия : С потерямиРазмер потока : 9,95 Мбайт (12%)Выравнивание : Соединение по промежуткамПродолжительность промежутка : 40 мс. (1,00 видеокадр)Время предзагрузки промежутка : 504 мс.Библиотека кодирования : LAME3.99rНастройки программы : -m s -V 4 -q 0 -lowpass 18.6 -b 192
Скриншоты
Скачать

Скачать торрент!

Как скачивать? · Что такое торрент? · Рейтинг и ограничения

Сайт не распространяет и не хранит электронные версии произведений, а лишь предоставляет доступ к создаваемому пользователями каталогу ссылок на торрент-файлы, которые содержат только списки хеш-сумм

[Профиль] [ЛС]
Показать сообщения:    
Ответить на тему

Текущее время: Сегодня 14:33

Часовой пояс: GMT + 4



Вы не можете начинать темы
Вы не можете отвечать на сообщения
Вы не можете редактировать свои сообщения
Вы не можете удалять свои сообщения
Вы не можете голосовать в опросах
Вы не можете прикреплять файлы к сообщениям
Вы не можете скачивать файлы