Неудержимые 3 / The Expendables 3 (Патрик Хьюз / Patrick Hughes) [2014, США, Франция, боевик, триллер, приключения, BDRip] [Theatrical Cut] Dub BD

Ответить на тему
 
Автор Сообщение

user ®

Стаж: 7 лет 7 месяцев

Сообщений: 20008

Пост Пост: #1 от 14-Дек-2014 19:00

[Цитировать]

Неудержимые 3 / The Expendables 3
Театральная версия / Theatrical Cut
«Сборная Голливуда снова в игре»
-Страна: США, Франция / Millennium Films, Lionsgate, Davis-Films, Ex3 Productions, Fipex Holding...
Жанр: боевик, триллер, приключения
Год выпуска: 2014
Продолжительность: 02:06:27
Перевод: Профессиональный (дублированный) лицензия BD
Cубтитры: нет
Режиссёр: Патрик Хьюз / Patrick Hughes
В ролях: Сильвестр Сталлоне, Джейсон Стэйтем, Харрисон Форд, Арнольд Шварценеггер, Мэл Гибсон, Уэсли Снайпс, Дольф Лундгрен, Рэнди Кутюр, Терри Крюс, Келси Грэммер, Глен Пауэлл, Антонио Бандерас.
Описание: Барни, Кристмас и остальные члены команды сходятся лицом к лицу с Конрадом Стоунбэнксом, многие годы назад основавшем вместе с Барни команду «Неудержимых». Впоследствии Стоунбэнкс становится безжалостным торговцем оружием и тем самым превращается в человека, которого Барни было поручено убить. Или по крайней мере он сам так считал. Теперь Стоунбэнкс, один раз уже сумевший обмануть смерть, поставил себе цель покончить с «Неудержимыми» — но у Барни на этот счет свои планы. Барни решает, что в его борьбе «свежий» подход можно противопоставить старым методам, и пополняет ряды людьми, которые моложе, быстрее и технически более подкованные. Так у членов команды «Неудержимых» начинается новая эра. Последняя миссия превращается в столкновение между представителями классической старой школы и экспертами в высоких технологиях.-Рейтинг
imdb.com: 6.20 (70 228)
kinopoisk.ru: 6.160 (22 519)
MPAA: - детям до 13 лет просмотр не желателен-Сэмпл: http://multi-up.com/1020457-Качество видео: BDRip [Neuderzhimye.3.2014.x264.Blu-Ray.Remux.1080p.gogamel74.ExKinoRay.mkv]
Формат видео: AVI
Видео: XviD build 65, 720x304 (2.37:1), 23.976 fps, ~1264 kbps avg, 0.241 bit/pixel
Аудио: 48 kHz, AC3 Dolby Digital, 3/2 (L,C,R,l,r) + LFE ch, ~384 kbps avg (Dub)
Формат субтитров: softsub (SRT)
-MediaInfo
Общее
Полное имя : D:\The.Expendables.3.2014.Theatrical.Cut.Dub.BDRip.1,46Gb.XviD.AC3.avi
Формат : AVI
Формат/Информация : Audio Video Interleave
Размер файла : 1,46 Гбайт
Продолжительность : 2 ч. 6 м.
Общий поток : 1657 Кбит/сек
Название фильма : The Expendables 3. 2014 [Theatrical Cut]
Режиссёр : Patrick Hughes
Дата записи : 14.12.2014
Программа кодирования : VirtualDubModRus 1.5.10.2 (build 2542/release)
Библиотека кодирования : VirtualDubMod build 2542/release
Правообладатель : ***
Примечание : BDRip by MooN_WalkeR
Видео
Идентификатор : 0
Формат : MPEG-4 Visual
Профиль формата : Advanced Simple@L5
Параметр BVOP формата : 1
Параметр QPel формата : Нет
Параметр GMC формата : Без точки перехода
Параметр матрицы формата : Выборочная
Идентификатор кодека : XVID
Идентификатор кодека/Подсказка : XviD
Продолжительность : 2 ч. 6 м.
Битрейт : 1264 Кбит/сек
Ширина : 720 пикселей
Высота : 304 пикселя
Соотношение сторон : 2,35:1
Частота кадров : 23,976 кадра/сек
Цветовое пространство : YUV
Субдискретизация насыщенности : 4:2:0
Битовая глубина : 8 бит
Тип развёртки : Прогрессивная
Метод сжатия : С потерями
Бит/(Пиксели*Кадры) : 0.241
Размер потока : 1,12 Гбайт (76%)
Библиотека кодирования : XviD 65
Аудио
Идентификатор : 1
Формат : AC-3
Формат/Информация : Audio Coding 3
Расширение режима : CM (complete main)
Параметр Endianness формата : Big
Идентификатор кодека : 2000
Продолжительность : 2 ч. 6 м.
Вид битрейта : Постоянный
Битрейт : 384 Кбит/сек
Каналы : 6 каналов
Расположение каналов : Front: L C R, Side: L R, LFE
Частота : 48,0 КГц
Битовая глубина : 16 бит
Метод сжатия : С потерями
Размер потока : 347 Мбайт (23%)
Выравнивание : Разделение по промежуткам
Продолжительность промежутка : 42 мс. (1,00 видеокадр)
Время предзагрузки промежутка : 500 мс.
Заголовок : D
ub
Скриншоты
Скачать

Скачать торрент!

Как скачивать? · Что такое торрент? · Рейтинг и ограничения

Сайт не распространяет и не хранит электронные версии произведений, а лишь предоставляет доступ к создаваемому пользователями каталогу ссылок на торрент-файлы, которые содержат только списки хеш-сумм

[Профиль] [ЛС]
Показать сообщения:    
Ответить на тему

Текущее время: Сегодня 02:26

Часовой пояс: GMT + 4



Вы не можете начинать темы
Вы не можете отвечать на сообщения
Вы не можете редактировать свои сообщения
Вы не можете удалять свои сообщения
Вы не можете голосовать в опросах
Вы не можете прикреплять файлы к сообщениям
Вы не можете скачивать файлы