Кунг-фу значит кулаки, удары и мечи / Kung Fu Means Fists, Strikes & Swords / Art of War / Mang quan guai zhao shen jing dao (Ло Кэй / Lo Ke) [1978, Гонконг, боевые искусства, VHSRip] VO (Прокс) + Sub Eng

Ответить на тему
 
Автор Сообщение

user ®

Стаж: 13 лет

Сообщений: 15071

Пост Пост: #1 от 14-Дек-2014 15:50

[Цитировать]

Кунг-фу значит кулаки, удары и мечи / Kung Fu Means Fists, Strikes & Swords / Art of War / Mang quan guai zhao shen jing dao
Страна: Гонконг
Жанр: боевые искусства
Год выпуска: 1978
Продолжительность: 01:25:28
Перевод: Одноголосый закадровый Прокс
Cубтитры: английские, китайские
Режиссер: Ло Кэй / Lo Ke
В ролях: Генри Юй Ян, Ник Чён Лик (Чжан Ли), Хонь Куокчхой, Лю Цзясюн, Ресанд Лам (Линь Цяоэр), Ли Кунь, Цай Хун, Шань Гуай, Лю Гочэн, Хуан Цзясюн, Фун Хаконь
Описание: Данный фильм рассказывает о мастерстве разных школ, где доминируют высокие качества мастерства различных стилей...
Сэмпл: http://multi-up.com/1020391
Релиз группы:
Качество видео: VHSRip
Формат видео: AVI
Видео: 592x448 (1.32:1), 25 fps, XviD build 50 ~2151 kbps avg, 0.32 bit/pixel
Аудио: 48 kHz, MPEG Layer 3, 2 ch, ~128.00 kbps avg
Формат субтитров: hardsub (неотключаемые)
MediaInfo
Format : AVI
Format/Info : Audio Video Interleave
File size : 1,37 Гбайт
Duration : 1 ч. 25 м.
Overall bit rate : 2289 Кбит/сек
Writing application : VirtualDubMod 1.5.10.3 | www.virtualdub-fr.org || (build 2550/release)
Writing library : VirtualDubMod build 2550/release
Видео
ID : 0
Format : MPEG-4 Visual
Format profile : Advanced Simple@L5
Format settings, BVOP : 2
Format settings, QPel : Нет
Format settings, GMC : Без точки перехода
Format settings, Matrix : Default (MPEG)
Codec ID : XVID
Codec ID/Hint : XviD
Duration : 1 ч. 25 м.
Bit rate : 2152 Кбит/сек
Width : 592 пикселя
Height : 448 пикселей
Display aspect ratio : 4:3
Frame rate : 25,000 кадров/сек
Color space : YUV
Chroma subsampling : 4:2:0
Bit depth : 8 бит
Scan type : Прогрессивная
Compression mode : С потерями
Bits/(Pixel*Frame) : 0.325
Stream size : 1,28 Гбайт (94%)
Writing library : XviD 1.2.1 (UTC 2008-12-04)
Аудио
ID : 1
Format : MPEG Audio
Format version : Version 1
Format profile : Layer 3
Codec ID : 55
Codec ID/Hint : MP3
Duration : 1 ч. 25 м.
Bit rate mode : Постоянный
Bit rate : 128 Кбит/сек
Channel(s) : 2 канала
Sampling rate : 48,0 КГц
Compression mode : С потерями
Stream size : 78,2 Мбайт (6%)
Alignment : Соединение по промежуткам
Interleave, duration : 40 мс. (1,00 видеокадр)
Interleave, preload duration : 504 мс.
Writing library : LAME3.99r
Encoding settings : -m s -V 4 -q 2 -lowpass 17 -b 128
Скриншот c названием фильма Скриншоты
Скачать

Скачать торрент! Кунг-фу значит кулаки, удары и мечи / Kung Fu Means Fists, Strikes & Swords / Art of War / Mang quan guai zhao shen jing dao (Ло Кэй / Lo Ke) [1978, Гонконг, боевые искусства, VHSRip] VO (Прокс) + Sub Eng

Как скачивать? · Что такое торрент? · Рейтинг и ограничения

Сайт не распространяет и не хранит электронные версии произведений, а лишь предоставляет доступ к создаваемому пользователями каталогу ссылок на торрент-файлы, которые содержат только списки хеш-сумм

[Профиль] [ЛС]
Показать сообщения:    
Ответить на тему

Текущее время: Сегодня 16:47

Часовой пояс: GMT + 4



Вы не можете начинать темы
Вы не можете отвечать на сообщения
Вы не можете редактировать свои сообщения
Вы не можете удалять свои сообщения
Вы не можете голосовать в опросах
Вы не можете прикреплять файлы к сообщениям
Вы не можете скачивать файлы