Черепашки-ниндзя / Teenage Mutant Ninja Turtles (Джонатан Либесман / Jonathan Liebesman) [2014, США, Фантастика, фэнтези, боевик, комедия, приключения, BDRip-AVC] Dub + Original Eng + Sub (rus, eng)

Ответить на тему
 
Автор Сообщение

user ®

Стаж: 7 лет 7 месяцев

Сообщений: 20008

Пост Пост: #1 от 14-Дек-2014 15:50

[Цитировать]

Черепашки-ниндзя / Teenage Mutant Ninja Turtles
«The leader. The brains. The attitude. And Mikey»
Год выпуска: 2014
Страна: США
Производство: Gama Entertainment Partners, Heavy Metal, Mednick Productions, Nickelodeon Movies, Paramount Pictures, Platinum Dunes
Жанр: Фантастика, фэнтези, боевик, комедия, приключения
Режиссёр: Джонатан Либесман / Jonathan Liebesman
В ролях: Меган Фокс, Уилл Арнетт, Уильям Фихтнер, Алан Ричсон, Ноэль Фишер, Пит Пложек, Джонни Ноксвил, Джереми Ховард, Дэнни Вудберн, Тони Шэлуб
Перевод: Профессиональный (полное дублирование) EUR + Оригинал (Английский)
Субтитры: Русские (полные, форсированные), Английские (полные, форсированные, SDH)
Описание: Город нуждается в героях. Тьма окутала Нью-Йорк в виде Шреддера и его зловещего Клана Футов, у которого имеется железный контроль над всеми, от полицейских до политиков. Будущее выглядит мрачным, пока из канализации не поднимается и не раскрывает своё предназначение четвёрка отверженных братьев — Черепашки-ниндзя. Черепашки должны работать вместе с бесстрашным репортёром Эйприл и её саркастическим оператором Верном Фенвиком, чтобы спасти город и разгадать дьявольский план Шреддера.

Автор рипа: zOJIOtOi
Качество: BDRip-AVC [Черепашки-ниндзя / Teenage Mutant Ninja Turtles (2014) 1080p BD-Remux] - Сэмпл - Сравнение с [url=http://***/forum/viewtopic.php?t=4881186]похожим релизом[/url]
Продолжительность: 01:41:18 час.
Формат: MKV
Видео кодек: AVC
Аудио кодек: AC3
Видео: 1152x480p, 2.40:1, 23,976 fps, H.264 ~4 186 Kbps avg, 0.316 bit/pixel
Аудио #1: 48 kHz, AC3, 5.1, ~448 Кбит/с
Аудио #2: 48 kHz, AC3, 5.1, ~448 Кбит/с
премьера (мир) 3 августа 2014, ...
премьера (РФ) 7 августа 2014, «Централ Партнершип» 3D
релиз на Blu-Ray 15 декабря 2014, «Новый Диск», ...
релиз на DVD 15 декабря 2014, «Новый Диск», ...
x264 log
raw [info]: 1152x480p 1:1 @ 24000/1001 fps (cfr)
x264 [info]: using SAR=1/1
x264 [info]: using cpu capabilities: MMX2 SSE2Fast SSSE3 SSE4.2 AVX
x264 [info]: profile High, level 4.0
x264 [info]: cabac=1 ref=13 deblock=1:-2:-1 analyse=0x3:0x133 me=umh subme=11 psy=1 fade_compensate=0.00 psy_rd=1.00:0.00 mixed_ref=1 me_range=32 chroma_me=1 trellis=2 8x8dct=1 cqm=0 deadzone=21,11 fast_pskip=0 chroma_qp_offset=-2 threads=6 lookahead_threads=1 sliced_threads=0 nr=0 decimate=1 interlaced=0 bluray_compat=0 constrained_intra=0 fgo=0 bframes=14 b_pyramid=2 b_adapt=2 b_bias=0 direct=1 weightb=1 open_gop=0 weightp=2 keyint=250 keyint_min=23 scenecut=40 intra_refresh=0 rc_lookahead=40 rc=crf mbtree=0 crf=18.6000 qcomp=0.70 qpmin=0 qpmax=69 qpstep=4 vbv_maxrate=20000 vbv_bufsize=25000 crf_max=0.0 nal_hrd=none filler=0 ip_ratio=1.20 pb_ratio=1.20 aq=3:0.95
x264 [info]: frame I:916 Avg QP:17.88 size: 67526
x264 [info]: frame P:37897 Avg QP:19.25 size: 36717
x264 [info]: frame B:106913 Avg QP:20.99 size: 16862
x264 [info]: consecutive B-frames: 3.7% 4.9% 14.3% 32.7% 15.4% 21.2% 2.6% 1.5% 2.2% 0.5% 0.2% 0.1% 0.2% 0.2% 0.3%
x264 [info]: mb I I16..4: 8.4% 71.1% 20.5%
x264 [info]: mb P I16..4: 1.2% 21.3% 3.3% P16..4: 24.5% 30.0% 11.7% 2.2% 0.2% skip: 5.5%
x264 [info]: mb B I16..4: 0.2% 4.2% 0.6% B16..8: 34.3% 23.9% 4.8% direct: 7.1% skip:24.9% L0:40.4% L1:43.3% BI:16.3%
x264 [info]: 8x8 transform intra:82.6% inter:62.2%
x264 [info]: coded y,uvDC,uvAC intra: 91.1% 89.2% 69.5% inter: 36.6% 31.1% 6.5%
x264 [info]: i16 v,h,dc,p: 42% 13% 5% 40%
x264 [info]: i8 v,h,dc,ddl,ddr,vr,hd,vl,hu: 7% 7% 7% 10% 14% 13% 15% 12% 15%
x264 [info]: i4 v,h,dc,ddl,ddr,vr,hd,vl,hu: 8% 8% 5% 9% 16% 14% 16% 11% 14%
x264 [info]: i8c dc,h,v,p: 40% 23% 16% 20%
x264 [info]: Weighted P-Frames: Y:7.4% UV:5.6%
x264 [info]: ref P L0: 47.7% 13.5% 15.6% 5.8% 4.4% 3.1% 2.6% 1.5% 1.4% 1.1% 1.1% 0.9% 0.9% 0.3% 0.0%
x264 [info]: ref B L0: 77.4% 10.1% 4.5% 2.4% 1.6% 1.2% 0.9% 0.6% 0.5% 0.4% 0.3% 0.2%
x264 [info]: ref B L1: 94.1% 5.9%
x264 [info]: kb/s:4285.75
MediaInfo
General
Unique ID : 224652994930061535998232151209016831259 (0xA90297CF0EE885A0BA16B214E8D82D1B)
Complete name : E:\Фильмы\Teenage.Mutant.Ninja.Turtles.2014.BDRip-AVC.Rus.Eng.Subs.by.zOJIOtOi.mkv
Format : Matroska
Format version : Version 4 / Version 2
File size : 3.67 GiB
Duration : 1h 41mn
Overall bit rate : 5 185 Kbps
Encoded date : UTC 2014-12-01 07:03:41
Writing application : mkvmerge v7.0.0 ('Where We Going') 64bit built on Jun 9 2014 15:16:27
Writing library : libebml v1.3.0 + libmatroska v1.4.1
Attachements : cover.jpg
DURATION : 01:33:13.844000000
NUMBER_OF_FRAMES : 1136
NUMBER_OF_BYTES : 65546
_STATISTICS_WRITING_APP : mkvmerge v7.0.0 ('Where We Going') 64bit built on Jun 9 2014 15:16:27
_STATISTICS_WRITING_DATE_UTC : 2014-12-01 07:03:41
_STATISTICS_TAGS : BPS DURATION NUMBER_OF_FRAMES NUMBER_OF_BYTES
Video
ID : 1
Format : AVC
Format/Info : Advanced Video Codec
Format profile : High@L4.0
Format settings, CABAC : Yes
Format settings, ReFrames : 13 frames
Codec ID : V_MPEG4/ISO/AVC
Duration : 1h 41mn
Bit rate : 4 186 Kbps
Width : 1 152 pixels
Height : 480 pixels
Display aspect ratio : 2.40:1
Frame rate mode : Constant
Frame rate : 23.976 fps
Color space : YUV
Chroma subsampling : 4:2:0
Bit depth : 8 bits
Scan type : Progressive
Bits/(Pixel*Frame) : 0.316
Stream size : 2.96 GiB (81%)
Title : Teenage.Mutant.Ninja.Turtles.2014.BDRip-AVC.by.zOJIOtOi
Writing library : x264 core 142 r2453kMod ea0ca51
Encoding settings : cabac=1 / ref=13 / deblock=1:-2:-1 / analyse=0x3:0x133 / me=umh / subme=11 / psy=1 / fade_compensate=0.00 / psy_rd=1.00:0.00 / mixed_ref=1 / me_range=32 / chroma_me=1 / trellis=2 / 8x8dct=1 / cqm=0 / deadzone=21,11 / fast_pskip=0 / chroma_qp_offset=-2 / threads=6 / lookahead_threads=1 / sliced_threads=0 / nr=0 / decimate=1 / interlaced=0 / bluray_compat=0 / constrained_intra=0 / fgo=0 / bframes=14 / b_pyramid=2 / b_adapt=2 / b_bias=0 / direct=1 / weightb=1 / open_gop=0 / weightp=2 / keyint=250 / keyint_min=23 / scenecut=40 / intra_refresh=0 / rc_lookahead=40 / rc=crf / mbtree=0 / crf=18.6000 / qcomp=0.70 / qpmin=0 / qpmax=69 / qpstep=4 / vbv_maxrate=20000 / vbv_bufsize=25000 / crf_max=0.0 / nal_hrd=none / filler=0 / ip_ratio=1.20 / pb_ratio=1.20 / aq=3:0.95
Language : English
Default : Yes
Forced : No
Color primaries : BT.709
Transfer characteristics : BT.709
Matrix coefficients : BT.709
DURATION : 01:41:17.989000000
NUMBER_OF_FRAMES : 145726
NUMBER_OF_BYTES : 3256090005
_STATISTICS_WRITING_APP : mkvmerge v7.0.0 ('Where We Going') 64bit built on Jun 9 2014 15:16:27
_STATISTICS_WRITING_DATE_UTC : 2014-12-01 07:03:41
_STATISTICS_TAGS : BPS DURATION NUMBER_OF_FRAMES NUMBER_OF_BYTES
Audio #1
ID : 2
Format : AC-3
Format/Info : Audio Coding 3
Mode extension : CM (complete main)
Format settings, Endianness : Big
Codec ID : A_AC3
Duration : 1h 41mn
Bit rate mode : Constant
Bit rate : 448 Kbps
Channel(s) : 6 channels
Channel positions : Front: L C R, Side: L R, LFE
Sampling rate : 48.0 KHz
Bit depth : 16 bits
Compression mode : Lossy
Stream size : 325 MiB (9%)
Title : Профессиональный (полное дублирование) | DD 5.1 @ 448 kbps
Language : Russian
Default : Yes
Forced : No
Audio #2
ID : 3
Format : AC-3
Format/Info : Audio Coding 3
Mode extension : CM (complete main)
Format settings, Endianness : Big
Codec ID : A_AC3
Duration : 1h 41mn
Bit rate mode : Constant
Bit rate : 448 Kbps
Channel(s) : 6 channels
Channel positions : Front: L C R, Side: L R, LFE
Sampling rate : 48.0 KHz
Bit depth : 16 bits
Compression mode : Lossy
Stream size : 325 MiB (9%)
Title : Оригинал (английский) | DD 5.1 @ 448 kbps
Language : English
Default : No
Forced : No
Text #1
ID : 4
Format : UTF-8
Codec ID : S_TEXT/UTF8
Codec ID/Info : UTF-8 Plain Text
Title : Full
Language : Russian
Default : No
Forced : No
Text #2
ID : 5
Format : UTF-8
Codec ID : S_TEXT/UTF8
Codec ID/Info : UTF-8 Plain Text
Title : Forced
Language : Russian
Default : Yes
Forced : No
Text #3
ID : 6
Format : UTF-8
Codec ID : S_TEXT/UTF8
Codec ID/Info : UTF-8 Plain Text
Title : Full
Language : English
Default : No
Forced : No
Text #4
ID : 7
Format : UTF-8
Codec ID : S_TEXT/UTF8
Codec ID/Info : UTF-8 Plain Text
Title : Forced
Language : English
Default : No
Forced : No
Text #5
ID : 8
Format : UTF-8
Codec ID : S_TEXT/UTF8
Codec ID/Info : UTF-8 Plain Text
Title : SDH
Language : English
Default : No
Forced : No
Menu
00:00:00.000 : en:Chapter 01
00:02:42.287 : en:Chapter 02
00:06:00.485 : en:Chapter 03
00:11:51.544 : en:Chapter 04
00:16:01.835 : en:Chapter 05
00:22:02.946 : en:Chapter 06
00:28:22.784 : en:Chapter 07
00:34:01.831 : en:Chapter 08
00:38:04.031 : en:Chapter 09
00:42:10.110 : en:Chapter 10
00:48:36.413 : en:Chapter 11
00:55:46.092 : en:Chapter 12
01:00:44.265 : en:Chapter 13
01:07:46.604 : en:Chapter 14
01:15:30.359 : en:Chapter 15
01:24:10.795 : en:Chapter 16
01:30:17.036 : en:Chapter 17
01:34:13.564 : en:Chapter 18
Скриншот c названием фильма Скриншоты
Скачать

Скачать торрент!

Как скачивать? · Что такое торрент? · Рейтинг и ограничения

Сайт не распространяет и не хранит электронные версии произведений, а лишь предоставляет доступ к создаваемому пользователями каталогу ссылок на торрент-файлы, которые содержат только списки хеш-сумм

[Профиль] [ЛС]
Показать сообщения:    
Ответить на тему

Текущее время: Сегодня 22:26

Часовой пояс: GMT + 4



Вы не можете начинать темы
Вы не можете отвечать на сообщения
Вы не можете редактировать свои сообщения
Вы не можете удалять свои сообщения
Вы не можете голосовать в опросах
Вы не можете прикреплять файлы к сообщениям
Вы не можете скачивать файлы