История дельфина 2 / Dolphin Tale 2 (Чарльз Мартин Смит / Charles Martin Smith) [2014 г., США, драма, семейный, BDRip-AVC] Dub + Original Eng + Sub (Rus, Ukr, Eng)

Ответить на тему
 
Автор Сообщение

user ®

Стаж: 7 лет 7 месяцев

Сообщений: 20008

Пост Пост: #1 от 14-Дек-2014 15:50

[Цитировать]

-История дельфина 2 / Dolphin Tale 2«В удивительной истории Уинтер появилась Надежда» Страна: США
Студия: Alcon Entertainment, Boxing Cat Films, Color Force
Жанр: Драма, семейный
Год выпуска: 2014
Продолжительность: 01:47:14-Перевод: Профессиональный (полное дублирование), BD EUR
Оригинальная аудиодорожка: английский
Cубтитры: русские, украинские, английские
Режиссер: Чарльз Мартин Смит / Charles Martin Smith
В ролях: Морган Фримен, Эшли Джадд, Нэйтан Гэмбл, Гарри Конник мл., Кози Цуельсдорфф, Крис Кристофферсон, Джулия Винтер, Остин Стоуэлл, Остин Хигсмит, Джулиана Харкви
Описание:Прошло несколько лет после событий, описываемых в первом фильме. Суррогатная мать Уинтер, старая дельфиниха по имени Панама, скончалась. В итоге Уинтер осталась одна, а по законам Министерства сельского хозяйства США дельфинов нельзя содержать по одному. Чтобы Уинтер не перевезли в другой аквариум, команде морского госпиталя придется найти ей компаньона…-
Сэмпл: скачать-Релиз от -
Автор рипа: Elheym
Качество: BDRip-AVC (источник: + / Blu-ray EUR [DOLPHIN_TALE_2_REMUX_HDCLUB] / 1080p)
Контейнер: MKV
Видео: 1152x648 (1.78:1), 23.976 fps, MPEG-4 AVC, ~4037 kbps avg, 0.226 bit/pixel
Аудио #1: Русский: AC3, 5.1, 48 kHz, ~448 Кбит/с | Профессиональный (полное дублирование), BD EUR |
Аудио #2: Английский: AC3, 5.1, 48 kHz, ~448 Кбит/с | Оригинал |
Субтитры: Русские (полные, форсированные), Украинские (полные, форсированные), английские (полные, полные SDH)
Главы: Присутствуют, сохранены оригинальные
MediaInfo
Уникальный идентификатор : 174923112501345832264885325081529121936 (0x8398F74DF3416B25B9E90EAABB697C90)
Полное имя : Dolphin.Tale.2.2014.DUAL.BDRip-AVC.x264.AC3.-HQCLUB.mkv
Формат : Matroska
Версия формата : Version 2
Размер файла : 3,77 Гбайт
Продолжительность : 1 ч. 47 м.
Общий поток : 5033 Кбит/сек
Дата кодирования : UTC 2014-12-14 08:07:30
Программа кодирования : mkvmerge v5.2.0 ('I can't explain') built on Dec 18 2011 18:12:03
Библиотека кодирования : libebml v1.2.3 + libmatroska v1.3.0
Видео
Идентификатор : 1
Формат : AVC
Формат/Информация : Advanced Video Codec
Профиль формата : High@L4.1
Параметр CABAC формата : Да
Параметр ReFrames формата : 11 кадров
Идентификатор кодека : V_MPEG4/ISO/AVC
Продолжительность : 1 ч. 47 м.
Битрейт : 4037 Кбит/сек
Ширина : 1152 пикселя
Высота : 648 пикселей
Соотношение сторон : 16:9
Режим частоты кадров : Постоянный
Частота кадров : 23,976 кадра/сек
Цветовое пространство : YUV
Субдискретизация насыщенности : 4:2:0
Битовая глубина : 8 бит
Тип развёртки : Прогрессивная
Бит/(Пиксели*Кадры) : 0.226
Размер потока : 3,02 Гбайт (80%)
Заголовок : История дельфина 2 / Dolphin Tale 2 (2014) BDRip-AVC by HQCLUB [Elheym]
Библиотека кодирования : x264 core 142 r2479kMod dd79a61
Настройки программы : cabac=1 / ref=11 / deblock=1:-3:-2 / analyse=0x3:0x133 / me=umh / subme=11 / psy=1 / fade_compensate=0.00 / psy_rd=1.06:0.00 / mixed_ref=1 / me_range=32 / chroma_me=1 / trellis=2 / 8x8dct=1 / cqm=0 / deadzone=21,11 / fast_pskip=0 / chroma_qp_offset=-4 / threads=5 / lookahead_threads=1 / sliced_threads=0 / nr=0 / decimate=0 / interlaced=0 / bluray_compat=0 / constrained_intra=0 / fgo=0 / bframes=12 / b_pyramid=2 / b_adapt=2 / b_bias=0 / direct=1 / weightb=1 / open_gop=0 / weightp=2 / keyint=230 / keyint_min=23 / scenecut=40 / intra_refresh=0 / rc_lookahead=40 / rc=crf / mbtree=1 / crf=18.2500 / qcomp=0.70 / qpmin=0 / qpmax=69 / qpstep=4 / vbv_maxrate=50000 / vbv_bufsize=62500 / crf_max=0.0 / nal_hrd=none / filler=0 / ip_ratio=1.40 / aq=2:0.90 / zones=146904,154263,q=36
Язык : English
Default : Да
Forced : Нет
Аудио #1
Идентификатор : 2
Формат : AC-3
Формат/Информация : Audio Coding 3
Расширение режима : CM (complete main)
Параметр Endianness формата : Big
Идентификатор кодека : A_AC3
Продолжительность : 1 ч. 47 м.
Вид битрейта : Постоянный
Битрейт : 448 Кбит/сек
Каналы : 6 каналов
Расположение каналов : Front: L C R, Side: L R, LFE
Частота : 48,0 КГц
Битовая глубина : 16 бит
Метод сжатия : С потерями
Размер потока : 344 Мбайт (9%)
Заголовок : АС3 5.1 @ 448 kbps - Dub, BD EUR
Язык : Russian
Default : Нет
Forced : Нет
Аудио #2
Идентификатор : 3
Формат : AC-3
Формат/Информация : Audio Coding 3
Расширение режима : CM (complete main)
Параметр Endianness формата : Big
Идентификатор кодека : A_AC3
Продолжительность : 1 ч. 47 м.
Вид битрейта : Постоянный
Битрейт : 448 Кбит/сек
Каналы : 6 каналов
Расположение каналов : Front: L C R, Side: L R, LFE
Частота : 48,0 КГц
Битовая глубина : 16 бит
Метод сжатия : С потерями
Размер потока : 344 Мбайт (9%)
Заголовок : АС3 5.1 @ 448 kbps - Original
Язык : English
Default : Нет
Forced : Нет
Текст #1
Идентификатор : 4
Формат : UTF-8
Идентификатор кодека : S_TEXT/UTF8
Идентификатор кодека/Информация : UTF-8 Plain Text
Заголовок : Full
Язык : Russian
Default : Нет
Forced : Нет
Текст #2
Идентификатор : 5
Формат : UTF-8
Идентификатор кодека : S_TEXT/UTF8
Идентификатор кодека/Информация : UTF-8 Plain Text
Заголовок : Forced
Язык : Russian
Default : Нет
Forced : Нет
Текст #3
Идентификатор : 6
Формат : UTF-8
Идентификатор кодека : S_TEXT/UTF8
Идентификатор кодека/Информация : UTF-8 Plain Text
Заголовок : Full
Язык : Ukrainian
Default : Нет
Forced : Нет
Текст #4
Идентификатор : 7
Формат : UTF-8
Идентификатор кодека : S_TEXT/UTF8
Идентификатор кодека/Информация : UTF-8 Plain Text
Заголовок : Forced
Язык : Ukrainian
Default : Нет
Forced : Нет
Текст #5
Идентификатор : 8
Формат : UTF-8
Идентификатор кодека : S_TEXT/UTF8
Идентификатор кодека/Информация : UTF-8 Plain Text
Заголовок : Full
Язык : English
Default : Нет
Forced : Нет
Текст #6
Идентификатор : 9
Формат : UTF-8
Идентификатор кодека : S_TEXT/UTF8
Идентификатор кодека/Информация : UTF-8 Plain Text
Заголовок : Full SDH
Язык : English
Default : Нет
Forced : Нет
Меню
00:00:00.000 : :Chapter 01
00:10:42.057 : :Chapter 02
00:20:34.857 : :Chapter 03
00:30:43.967 : :Chapter 04
00:41:08.965 : :Chapter 05
00:50:24.438 : :Chapter 06
00:59:16.427 : :Chapter 07
01:11:01.421 : :Chapter 08
01:19:51.744 : :Chapter 09
01:31:45.082 : :Chapter 10
01:36:05.259 : :Chapter 11
01:47:13.885 : :Chapter 12
x264 log
x264 [info]: frame I:1472 Avg QP:16.12 size:104094
x264 [info]: frame P:35189 Avg QP:20.47 size: 37359
x264 [info]: frame B:117603 Avg QP:22.36 size: 15791
x264 [info]: consecutive B-frames: 1.8% 2.2% 6.2% 46.2% 13.2% 20.1% 4.4% 2.5% 0.5% 0.2% 2.0% 0.4% 0.2%
x264 [info]: ref P L0: 49.1% 9.7% 16.6% 6.3% 4.9% 3.8% 3.2% 1.8% 1.6% 1.4% 1.4% 0.1% 0.0%
x264 [info]: ref B L0: 78.7% 9.4% 4.4% 2.2% 1.6% 1.3% 1.0% 0.7% 0.4% 0.2%
x264 [info]: ref B L1: 94.3% 5.7%
Скриншоты
Скачать

Скачать торрент!

Как скачивать? · Что такое торрент? · Рейтинг и ограничения

Сайт не распространяет и не хранит электронные версии произведений, а лишь предоставляет доступ к создаваемому пользователями каталогу ссылок на торрент-файлы, которые содержат только списки хеш-сумм

[Профиль] [ЛС]
Показать сообщения:    
Ответить на тему

Текущее время: Сегодня 13:41

Часовой пояс: GMT + 4



Вы не можете начинать темы
Вы не можете отвечать на сообщения
Вы не можете редактировать свои сообщения
Вы не можете удалять свои сообщения
Вы не можете голосовать в опросах
Вы не можете прикреплять файлы к сообщениям
Вы не можете скачивать файлы