Орудия смерти: Город костей / The Mortal Instruments: City of Bones (Харольд Цварт / Harald Zwart) [2013, Канада, Германия, фэнтези, боевик, драма, BDRip 720p] Dub + MVO + Sub Rus,Eng + Original Eng

Ответить на тему
 
Автор Сообщение

user ®

Стаж: 7 лет 7 месяцев

Сообщений: 20008

Пост Пост: #1 от 13-Дек-2014 22:45

[Цитировать]

Орудия смерти: Город костей / The Mortal Instruments: City of Bones Страна: Канада, Германия
Студия: Constantin Film Produktion, Don Carmody Productions, Unique Features
Жанр: фэнтези, боевик, драма
Год выпуска: 2013
Продолжительность: 02:10:15
Перевод 1: Профессиональный (дублированный) Blu-Ray
Перевод 2: Любительский (многоголосый закадровый)
Cубтитры: русские (voronine), английские (full, SDH)
Оригинальная аудиодорожка: английский
Режиссер: Харольд Цварт / Harald Zwart
В ролях: Лили Коллинз, Джейми Кэмпбелл Бауэр, Роберт Шиэн, Кевин Зегерс, Лина Хиди, Кевин Дюран, Эйдан Тернер, Джемайма Уэст, Роберт Мэйллет, Годфри Гао
Описание: Клэри Фрэй всегда считала себя самой обыкновенной девушкой, пока не выяснилось, что она — потомок древнего рода Сумеречных Охотников, тайной касты воинов-полуангелов, защищающих наш мир от демонов. Когда мама Клэри исчезает, девушка объединяется с Сумеречными охотниками, чтобы спасти ее. Так начинается ее опасное знакомство с иной реальностью, в которой существуют демоны, маги, вампиры, оборотни и другие смертоносные существа.

Тип релиза: BDRip 720p [DON]
Контейнер: MKV
Видео: AVC, 1280x534, 9000 kbps, 23.976 fps
Аудио 1: Russian: 48 kHz, AC3, 3/2 (L,C,R,l,r) + LFE ch, ~640.00 kbps avg |Blu-ray|
Аудио 2: Russian: 48 kHz, AC3, 3/2 (L,C,R,l,r) + LFE ch, ~448.00 kbps avg |MVO|
Аудио 3: Ukrainian: 48 kHz, AC3, 2/0 (L,R) ch, ~192.00 kbps avg |DUB|
Аудио 4: English: 48 kHz, AC3, 3/2 (L,C,R,l,r) + LFE ch, ~640.00 kbps avg |Original|
Чаптеры:есть

x264 log
x264 [info]: frame I:1914 Avg QP:13.81 size:140679
x264 [info]: frame P:39831 Avg QP:15.37 size: 86335
x264 [info]: frame B:145647 Avg QP:17.25 size: 41780
x264 [info]: consecutive B-frames: 2.3% 2.3% 7.0% 18.3% 19.2% 38.6% 7.0% 5.3%
MediaInfo
General
Unique ID : 250011633553069272481596271992981331681 (0xBC167D38F7A2ED7CB93112E5C50E9EE1)
Complete name : D:\The.Mortal.Instruments.City.of.Bones.2013.720p.BluRay-Talian-.mkv
Format : Matroska
Format version : Version 2
File size : 10.9 GiB
Duration : 2h 10mn
Overall bit rate : 11.9 Mbps
Movie name : The Mortal Instruments City of Bones -Talian-
Encoded date : UTC 2014-12-12 09:49:41
Writing application : mkvmerge v5.7.0 ('The Whirlwind') built on Jul 8 2012 20:08:51
Writing library : libebml v1.2.3 + libmatroska v1.3.0
Video
ID : 1
Format : AVC
Format/Info : Advanced Video Codec
Format profile : High@L4.1
Format settings, CABAC : Yes
Format settings, ReFrames : 12 frames
Codec ID : V_MPEG4/ISO/AVC
Duration : 2h 10mn
Bit rate : 9 788 Kbps
Width : 1 280 pixels
Height : 534 pixels
Display aspect ratio : 2.40:1
Frame rate : 23.976 fps
Color space : YUV
Chroma subsampling : 4:2:0
Bit depth : 8 bits
Scan type : Progressive
Bits/(Pixel*Frame) : 0.597
Stream size : 8.91 GiB (82%)
Title : DON
Writing library : x264 core 120 r2164+656 2ff844c
Encoding settings : cabac=1 / ref=12 / deblock=1:-3:-3 / analyse=0x3:0x133 / me=umh / subme=10 / psy=1 / fade_compensate=0.00 / psy_rd=0.90:0.02 / mixed_ref=1 / me_range=32 / chroma_me=1 / trellis=2 / 8x8dct=1 / cqm=0 / deadzone=21,11 / fast_pskip=0 / chroma_qp_offset=-3 / threads=3 / sliced_threads=0 / nr=0 / decimate=0 / interlaced=0 / bluray_compat=0 / constrained_intra=0 / fgo=0 / bframes=7 / b_pyramid=2 / b_adapt=2 / b_bias=0 / direct=3 / weightb=1 / open_gop=0 / weightp=2 / keyint=250 / keyint_min=23 / scenecut=40 / intra_refresh=0 / rc=crf / mbtree=0 / crf=15.9 / qcomp=0.60 / qpmin=0 / qpmax=69 / qpstep=4 / ip_ratio=1.40 / pb_ratio=1.30 / aq=3:0.90 / zones=179675,187392,b=0.6
Language : English
Default : Yes
Forced : No
Audio #1
ID : 2
Format : AC-3
Format/Info : Audio Coding 3
Mode extension : CM (complete main)
Format settings, Endianness : Big
Codec ID : A_AC3
Duration : 2h 10mn
Bit rate mode : Constant
Bit rate : 640 Kbps
Channel(s) : 6 channels
Channel positions : Front: L C R, Side: L R, LFE
Sampling rate : 48.0 KHz
Bit depth : 16 bits
Compression mode : Lossy
Stream size : 596 MiB (5%)
Title : DUB- Blu-Ray
Language : Russian
Default : Yes
Forced : No
Audio #2
ID : 3
Format : AC-3
Format/Info : Audio Coding 3
Mode extension : CM (complete main)
Format settings, Endianness : Big
Codec ID : A_AC3
Duration : 2h 10mn
Bit rate mode : Constant
Bit rate : 448 Kbps
Channel(s) : 6 channels
Channel positions : Front: L C R, Side: L R, LFE
Sampling rate : 48.0 KHz
Bit depth : 16 bits
Compression mode : Lossy
Stream size : 417 MiB (4%)
Title : MVO
Language : Russian
Default : No
Forced : No
Audio #3
ID : 4
Format : AC-3
Format/Info : Audio Coding 3
Mode extension : CM (complete main)
Format settings, Endianness : Big
Codec ID : A_AC3
Duration : 2h 10mn
Bit rate mode : Constant
Bit rate : 192 Kbps
Channel(s) : 2 channels
Channel positions : Front: L R
Sampling rate : 48.0 KHz
Bit depth : 16 bits
Compression mode : Lossy
Stream size : 179 MiB (2%)
Title : DUB
Language : Ukrainian
Default : No
Forced : No
Audio #4
ID : 5
Format : AC-3
Format/Info : Audio Coding 3
Mode extension : CM (complete main)
Format settings, Endianness : Big
Codec ID : A_AC3
Duration : 2h 10mn
Bit rate mode : Constant
Bit rate : 640 Kbps
Channel(s) : 6 channels
Channel positions : Front: L C R, Side: L R, LFE
Sampling rate : 48.0 KHz
Bit depth : 16 bits
Compression mode : Lossy
Stream size : 596 MiB (5%)
Title : Original
Language : English
Default : No
Forced : No
Text #1
ID : 6
Format : UTF-8
Codec ID : S_TEXT/UTF8
Codec ID/Info : UTF-8 Plain Text
Title : Sub
Language : Russian
Default : No
Forced : No
Text #2
ID : 7
Format : UTF-8
Codec ID : S_TEXT/UTF8
Codec ID/Info : UTF-8 Plain Text
Title : Sub-full
Language : English
Default : No
Forced : No
Text #3
ID : 8
Format : UTF-8
Codec ID : S_TEXT/UTF8
Codec ID/Info : UTF-8 Plain Text
Title : Sub-SDH
Language : English
Default : No
Forced : No
Menu
00:00:00.000 : :00:00:00.000
00:08:04.609 : :00:08:04.609
00:15:02.360 : :00:15:02.360
00:22:18.379 : :00:22:18.379
00:29:46.034 : :00:29:46.034
00:38:43.071 : :00:38:43.071
00:44:12.859 : :00:44:12.859
00:49:45.232 : :00:49:45.232
00:59:47.667 : :00:59:47.667
01:06:47.295 : :01:06:47.295
01:15:36.866 : :01:15:36.866
01:22:36.034 : :01:22:36.034
01:30:04.149 : :01:30:04.149
01:37:07.572 : :01:37:07.572
01:46:02.189 : :01:46:02.189
01:54:13.013 : :01:54:13.013
Скриншоты
Source vs Encode


Скачать

Скачать торрент!

Как скачивать? · Что такое торрент? · Рейтинг и ограничения

Сайт не распространяет и не хранит электронные версии произведений, а лишь предоставляет доступ к создаваемому пользователями каталогу ссылок на торрент-файлы, которые содержат только списки хеш-сумм

[Профиль] [ЛС]
Показать сообщения:    
Ответить на тему

Текущее время: Сегодня 02:15

Часовой пояс: GMT + 4



Вы не можете начинать темы
Вы не можете отвечать на сообщения
Вы не можете редактировать свои сообщения
Вы не можете удалять свои сообщения
Вы не можете голосовать в опросах
Вы не можете прикреплять файлы к сообщениям
Вы не можете скачивать файлы