Вереница страданий / The Drudgery Train (Нобухиро Ямасита / Nobuhiro Yamashita) [2012, Япония, драма, чёрная комедия, HDRip] VO [D.I.M.]

Ответить на тему
 
Автор Сообщение

user ®

Стаж: 13 лет

Сообщений: 15071

Пост Пост: #1 от 13-Дек-2014 14:20

[Цитировать]

Вереница страданий / The Drudgery Train- -Страна: Япония
Жанр: драма, чёрная комедия
Год выпуска: 2012
Продолжительность: 01:53:30-Перевод: Одноголосый закадровый [D.I.M.]-Cубтитры: нет
Оригинальная аудиодорожка: нет
Режиссер: Нобухиро Ямасита / Nobuhiro Yamashita
В ролях: Мираи Морияма, Кенго Кора, Ацуко Маеда, Макита Супоцу, Томорово Тагути...
Описание: История о нелегкой жизни студента Китамити. Он работает грузчиком в доках, снимая дешевую комнату в Токио, тратя все заработанные деньги на алкоголь. У него нет девушки и почти нет друзей. Однажды, он знакомится со студентом Кусакабе, и они становятся лучшими друзьями. С помощью Кусакабе Китамити знакомится с продавщицей магазина подержанных книг Ясуко и влюбляется в нее с первого взгляда. Однако мужская дружба начинает рушиться из-за беспочвенной ревности.
Релиз от -
Сэмпл: http://multi-up.com/1020107
Качество видео: HDRip
Формат видео: AVI
Видео: MPEG-4 Visual at 785 Кбит/сек; 656 x 352 (1.864) at 23.976 fps
Аудио: MPEG Audio at 128 Кбит/сек; 2 канала, 48,0 КГц
Автор -
MediaInfo
Общее
Полное имя : D:\Фильмы\Азиатские\Вереница страданий\The Drudgery Train.2012.HDRip.XviD.745MB. rip by [Assassin's Creed].avi
Формат : AVI
Формат/Информация : Audio Video Interleave
Размер файла : 748 Мбайт
Продолжительность : 1 ч. 53 м.
Общий поток : 922 Кбит/сек
Программа кодирования : VirtualDubMod 1.5.10.3 | www.virtualdub-fr.org || (build 2550/release)
Библиотека кодирования : VirtualDubMod build 2550/release
Видео
Идентификатор : 0
Формат : MPEG-4 Visual
Профиль формата : Advanced Simple@L5
Параметр BVOP формата : 1
Параметр QPel формата : Нет
Параметр GMC формата : Без точки перехода
Параметр матрицы формата : Default (MPEG)
Идентификатор кодека : XVID
Идентификатор кодека/Подсказка : XviD
Продолжительность : 1 ч. 53 м.
Битрейт : 785 Кбит/сек
Ширина : 656 пикселей
Высота : 352 пикселя
Соотношение сторон : 1,85:1
Частота кадров : 23,976 кадра/сек
Цветовое пространство : YUV
Субдискретизация насыщенности : 4:2:0
Битовая глубина : 8 бит
Тип развёртки : Прогрессивная
Метод сжатия : С потерями
Бит/(Пиксели*Кадры) : 0.142
Размер потока : 637 Мбайт (85%)
Библиотека кодирования : XviD 1.2.1 (UTC 2008-12-04)
Аудио
Идентификатор : 1
Формат : MPEG Audio
Версия формата : Version 1
Профиль формата : Layer 3
Идентификатор кодека : 55
Идентификатор кодека/Подсказка : MP3
Продолжительность : 1 ч. 53 м.
Вид битрейта : Постоянный
Битрейт : 128 Кбит/сек
Каналы : 2 канала
Частота : 48,0 КГц
Метод сжатия : С потерями
Размер потока : 104 Мбайт (14%)
Выравнивание : Соединение по промежуткам
Продолжительность промежутка : 42 мс. (1,00 видеокадр)
Время предзагрузки промежутка : 504 мс.
Библиотека кодирования : LAME3.99r
Настройки программы : -m s -V 4 -q 2 -lowpass 17 -b 128
Скриншот c названием фильма Скриншоты
Скачать

Скачать торрент! Вереница страданий / The Drudgery Train (Нобухиро Ямасита / Nobuhiro Yamashita) [2012, Япония, драма, чёрная комедия, HDRip] VO [D.I.M.]

Как скачивать? · Что такое торрент? · Рейтинг и ограничения

Сайт не распространяет и не хранит электронные версии произведений, а лишь предоставляет доступ к создаваемому пользователями каталогу ссылок на торрент-файлы, которые содержат только списки хеш-сумм

[Профиль] [ЛС]
Показать сообщения:    
Ответить на тему

Текущее время: Сегодня 21:18

Часовой пояс: GMT + 4



Вы не можете начинать темы
Вы не можете отвечать на сообщения
Вы не можете редактировать свои сообщения
Вы не можете удалять свои сообщения
Вы не можете голосовать в опросах
Вы не можете прикреплять файлы к сообщениям
Вы не можете скачивать файлы