История ненависти 2 / Hate Story 2 ( Вишал Пандья / Vishal Pandya) [2014, Индия, Триллер, драма, мелодрама, DVDRip-AVC] DVO (DeadSno & den904) + Sub Rus (песни)

Ответить на тему
 
Автор Сообщение

user ®

Стаж: 12 лет

Сообщений: 15092

Пост Пост: #1 от 13-Дек-2014 14:20

[Цитировать]

История ненависти 2 / Hate Story 2
-Страна: Индия
Жанр: Триллер, драма, мелодрама
Год выпуска: 2014
Продолжительность: 02:13:44-Перевод: Любительский (двухголосый закадровый) - DeadSno & den904
Субтитры: Есть (только песни)--Режиссер: Вишал Пандья / Vishal Pandya-В ролях: Сушант Сингх, Джай Бханушали, Сурвин Чавла, Сидхарт Кхер, Раджеш Кхера, Санни Леоне--Описание: «В политике и в любви нет никакого доверия» - таков жизненный девиз мерзкого и жестокого политика Мандара Матре, в золотой клетке которого находится беспомощная птичка Соника Прасад. Против своей воли она становится свидетелем грязной политической игры, которую ведёт её злостный искуситель. Никогда не знавшая любви, Соника поддаётся ухаживаниям молодого фотографа Акшая и отвечает взаимностью на его чувства. Кажется, молодых ждёт безразмерное счастье, но никто просто так не расстаётся со своей игрушкой. Разъярённый Мандар открывает охоту на молодых. Хотя хищник может и сам стать жертвой...
(с) Honey-- --Качество видео: DVDRip-AVC
Формат видео: MKV-Видео: X264, 720x304, 23.976 fps, 1106 kbps
Аудио: 48 kHz, AC3, 2 ch, ~192 kbps
Субтитры: ASS (отдельным файлом)--Сэмпл / Sample--Релиз-группа:
Творческая озвучка: DeadSno & den904 (спасибо!)
Перевод на русский язык: Honey&Haseena (спасибо!)-- -
-
Скриншот с названием
-
Скриншоты
-
MI
General
Unique ID : 224058349474475049573690157282296340655 (0xA8901186385C9E30B14CF5AE14E020AF)
Complete name : H:\[DVDRip]\[VO]\ИсторияНенависти2\ИсторияНенависти2.mkv
Format : Matroska
Format version : Version 4 / Version 2
File size : 1.21 GiB
Duration : 2h 13mn
Overall bit rate : 1 300 Kbps
Encoded date : UTC 2014-12-10 04:25:42
Writing application : mkvmerge v7.2.0 ('On Every Street') 64bit built on Sep 13 2014 15:52:10
Writing library : libebml v1.3.0 + libmatroska v1.4.1
DURATION : 01:10:30.610000000
NUMBER_OF_FRAMES : 142
NUMBER_OF_BYTES : 12930
_STATISTICS_WRITING_APP : mkvmerge v7.2.0 ('On Every Street') 64bit built on Sep 13 2014 15:52:10
_STATISTICS_WRITING_DATE_UTC : 2014-12-10 04:25:42
_STATISTICS_TAGS : BPS DURATION NUMBER_OF_FRAMES NUMBER_OF_BYTES
Video
ID : 1
Format : AVC
Format/Info : Advanced Video Codec
Format profile : High@L3.1
Format settings, CABAC : Yes
Format settings, ReFrames : 5 frames
Codec ID : V_MPEG4/ISO/AVC
Duration : 2h 13mn
Bit rate : 1 106 Kbps
Width : 720 pixels
Height : 304 pixels
Display aspect ratio : 2.35:1
Frame rate mode : Constant
Frame rate : 23.976 fps
Color space : YUV
Chroma subsampling : 4:2:0
Bit depth : 8 bits
Scan type : Progressive
Bits/(Pixel*Frame) : 0.211
Stream size : 1.01 GiB (83%)
Writing library : x264 core 142 r2431 ac76440
Encoding settings : cabac=1 / ref=5 / deblock=1:0:0 / analyse=0x3:0x113 / me=umh / subme=8 / psy=1 / psy_rd=1.00:0.00 / mixed_ref=1 / me_range=16 / chroma_me=1 / trellis=1 / 8x8dct=1 / cqm=0 / deadzone=21,11 / fast_pskip=0 / chroma_qp_offset=-2 / threads=6 / lookahead_threads=1 / sliced_threads=0 / nr=1000 / decimate=1 / interlaced=0 / bluray_compat=0 / constrained_intra=0 / bframes=3 / b_pyramid=2 / b_adapt=2 / b_bias=0 / direct=3 / weightb=1 / open_gop=0 / weightp=2 / keyint=250 / keyint_min=23 / scenecut=40 / intra_refresh=0 / rc_lookahead=50 / rc=2pass / mbtree=1 / bitrate=1106 / ratetol=1.0 / qcomp=0.60 / qpmin=0 / qpmax=69 / qpstep=4 / cplxblur=20.0 / qblur=0.5 / ip_ratio=1.40 / aq=1:1.00
Default : Yes
Forced : No
Audio
ID : 2
Format : AC-3
Format/Info : Audio Coding 3
Mode extension : CM (complete main)
Format settings, Endianness : Big
Codec ID : A_AC3
Duration : 2h 13mn
Bit rate mode : Constant
Bit rate : 192 Kbps
Channel(s) : 2 channels
Channel positions : Front: L R
Sampling rate : 48.0 KHz
Bit depth : 16 bits
Compression mode : Lossy
Stream size : 184 MiB (15%)
Default : Yes
Forced : No
Text
ID : 3
Format : ASS
Codec ID : S_TEXT/ASS
Codec ID/Info : Advanced Sub Station Alpha
Compression mode : Lossless
Default : Yes
Forced : No

-
-
Скачать

Скачать торрент! История ненависти 2 / Hate Story 2 ( Вишал Пандья / Vishal Pandya) [2014, Индия, Триллер, драма, мелодрама, DVDRip-AVC] DVO (DeadSno & den904) + Sub Rus (песни)

Как скачивать? · Что такое торрент? · Рейтинг и ограничения

Сайт не распространяет и не хранит электронные версии произведений, а лишь предоставляет доступ к создаваемому пользователями каталогу ссылок на торрент-файлы, которые содержат только списки хеш-сумм

[Профиль] [ЛС]
Показать сообщения:    
Ответить на тему

Текущее время: Сегодня 07:06

Часовой пояс: GMT + 4



Вы не можете начинать темы
Вы не можете отвечать на сообщения
Вы не можете редактировать свои сообщения
Вы не можете удалять свои сообщения
Вы не можете голосовать в опросах
Вы не можете прикреплять файлы к сообщениям
Вы не можете скачивать файлы