Репортаж: Апокалипсис / [REC] 4: Apocalipsis (Хайме Балагуэро / Jaume Balaguero) [2014, Испания, ужасы, HDRip] Dub (звук с CAMRip)

Ответить на тему
 
Автор Сообщение

user ®

Стаж: 7 лет 7 месяцев

Сообщений: 20008

Пост Пост: #1 от 13-Дек-2014 14:20

[Цитировать]

Репортаж: Апокалипсис / [REC] 4: Apocalipsis
Страна: Испания
Жанр: ужасы
Год выпуска: 2014
Продолжительность: 01:34:59
Перевод: Профессиональный (дублированный) звук с CAMRip
Cубтитры: нет
Оригинальная аудиодорожка: нет
Режиссер: Хайме Балагуэро / Jaume Balaguero
В ролях: Мануэла Веласко, Хавьер Ботет, Пако Мансанедо, Мария Альфонса Россо, Исмаэль Фричи, Криспуло Кабесас, Мариано Венансио, Эмилио Буале, Эктор Коломе, Марк Шардан
Описание: Анхела приходит в себя на корабле посреди океана. После вспышки эпидемии неизвестного вируса, превращающего людей в зомби, ученые решили изолировать инфицированных, но не заболевших людей, чтобы исследовать природу заразы. На специально оборудованном бывшем нефтяном танкере есть все необходимое оборудование для проведения лабораторных экспериментов. Но, ни ученые, ни команда даже не догадываются, что их ждет. Ведь инфицированные несут в себе гибель для всего человечества.
Сэмпл: http://multi-up.com/1020051
Качество видео: HDRip (исходник не известен)
Формат видео: AVI
Видео: Xvid 720x304 24.00fps 1 859 Kbps
Аудио: Dolby AC3 48000Hz stereo 192kbps
MediaInfo
Format : AVI
Format/Info : Audio Video Interleave
File size : 1.37 GiB
Duration : 1h 34mn
Overall bit rate : 2 060 Kbps
Writing application : VirtualDubMod 1.5.10.2 (build 2540/release)
Writing library : VirtualDubMod build 2540/release
Video
ID : 0
Format : MPEG-4 Visual
Format profile : Advanced Simple@L5
Format settings, BVOP : Yes
Format settings, QPel : No
Format settings, GMC : No warppoints
Format settings, Matrix : Default (MPEG)
Codec ID : XVID
Codec ID/Hint : XviD
Duration : 1h 34mn
Bit rate : 1 859 Kbps
Width : 720 pixels
Height : 304 pixels
Display aspect ratio : 2.35:1
Frame rate : 24.000 fps
Resolution : 8 bits
Colorimetry : 4:2:0
Scan type : Progressive
Bits/(Pixel*Frame) : 0.354
Stream size : 1.23 GiB (90%)
Writing library : XviD 1.2.1 (UTC 2008-12-04)
Audio
ID : 1
Format : AC-3
Format/Info : Audio Coding 3
Codec ID : 2000
Duration : 1h 34mn
Bit rate mode : Constant
Bit rate : 192 Kbps
Channel(s) : 2 channels
Channel positions : L R
Sampling rate : 48.0 KHz
Stream size : 130 MiB (9%)
Alignment : Split accross interleaves
Interleave, duration : 42 ms (1.00 video frame)
Interleave, preload duration : 500 ms
Скриншот c названием фильма Скриншоты
Скачать

Скачать торрент!

Как скачивать? · Что такое торрент? · Рейтинг и ограничения

Сайт не распространяет и не хранит электронные версии произведений, а лишь предоставляет доступ к создаваемому пользователями каталогу ссылок на торрент-файлы, которые содержат только списки хеш-сумм

[Профиль] [ЛС]
Показать сообщения:    
Ответить на тему

Текущее время: Сегодня 14:45

Часовой пояс: GMT + 4



Вы не можете начинать темы
Вы не можете отвечать на сообщения
Вы не можете редактировать свои сообщения
Вы не можете удалять свои сообщения
Вы не можете голосовать в опросах
Вы не можете прикреплять файлы к сообщениям
Вы не можете скачивать файлы