Послушай, не идет ли дождь... (Аркадий Кордон) [1999 г., драма, SATRip]

Ответить на тему
 
Автор Сообщение

user ®

Стаж: 7 лет 7 месяцев

Сообщений: 20008

Пост Пост: #1 от 12-Дек-2014 21:15

[Цитировать]

Послушай, не идет ли дождь...
Год выпуска: 1999
Жанр: драма
Продолжительность: 01:38:39
Режиссер: Аркадий Кордон
В ролях: Алексей Петренко, Ирина Купченко, Альберт Филозов, Валерий Ивченко, Елена Майорова, Раиса Максимова, Юрий Веялис, Валерий Светлов.
Описание: В основе лирико-драматического повествования — судьба московского интеллигента Юрия Казакова (1927—1982), талантливого советского писателя, сценариста, музыканта, путешественника и знатока Севера. Название фильма заимствовано из названия последнего неоконченного рассказа писателя. Использованы мотивы рассказа Ивана Бунина «Сны Чанга».
"Это не очередной фильм биографического жанра. Это ассоциативная вещь. Действие происходит в настоящем и прошлом, и в ирреальной среде, где пересекаются мотивы рассказов Казакова «Трали-вали», «Голубое и зеленое», «Во сне ты долго плакал» и других. Герой может запросто встретиться со Сталиным или распивать водку с бомжем в подвале. Фильм должен стать поводом для размышлений о судьбе интеллигента в социалистическую эпоху». — Аркадий Кордон.- * Приз за мужскую роль Алексею Петренко на фестивале «Окно в Европу - 2000» (Выборг);
* Специальный приз «Серебряный Пегас» на фестивале «Московский Пегас - 2000» (Дом Ханжонкова);
* «Ника» в категории «Лучшая музыка к фильму» (Исаак Шварц) в 2000 году.
- Последняя работа в кино Елены Майоровой (роль Призрака), озвучила Юлия Рутберг.-Качество: SATRip (Сэмпл)
Формат: AVI
Видео: 608x400 (1.52:1), 25 fps, XviD build 73 ~1912 kbps avg, 0.31 bit/pixel
Аудио: 48 kHz, AC3 Dolby Digital, 2/0 (L,R) ch, ~192 kbps

Подробные технические данные
GeneralComplete name : Послушай не идет ли дождь_1999_Olu6ka.aviFormat : AVIFormat/Info : Audio Video InterleaveFile size : 1.46 GiBDuration : 1h 38mnOverall bit rate : 2 115 KbpsWriting application : VirtualDubMod 1.5.10.3Writing library : VirtualDubMod build 2550/release
VideoID : 0Format : MPEG-4 VisualFormat profile : Advanced Simple@L5Format settings, BVOP : 1Format settings, QPel : NoFormat settings, GMC : No warppointsFormat settings, Matrix : CustomCodec ID : XVIDCodec ID/Hint : XviDDuration : 1h 38mnBit rate : 1 913 KbpsWidth : 608 pixelsHeight : 400 pixelsDisplay aspect ratio : 3:2Frame rate : 25.000 fpsColor space : YUVChroma subsampling : 4:2:0Bit depth : 8 bitsScan type : ProgressiveCompression mode : LossyBits/(Pixel*Frame) : 0.315Stream size : 1.32 GiB (90%)Writing library : XviD 73
AudioID : 1Format : AC-3Format/Info : Audio Coding 3Mode extension : CM (complete main)Format settings, Endianness : BigCodec ID : 2000Duration : 1h 38mnBit rate mode : ConstantBit rate : 192 KbpsChannel count : 2 channelsChannel positions : Front: L RSampling rate : 48.0 KHzBit depth : 16 bitsCompression mode : LossyStream size : 135 MiB (9%)Alignment : Split accross interleavesInterleave, duration : 40 ms (1.00 video frame)Interleave, preload duration : 500 ms
Скриншоты Сравнение

[url=http://***/forum/viewtopic.php?t=1661034]http://***/forum/viewtopic.php?t=1661034[/url]
http://screenshotcomparison.com/comparison/104022/
Спасибо SLuMeP за исходник!
Раздача от группы:
Скачать

Скачать торрент!

Как скачивать? · Что такое торрент? · Рейтинг и ограничения

Сайт не распространяет и не хранит электронные версии произведений, а лишь предоставляет доступ к создаваемому пользователями каталогу ссылок на торрент-файлы, которые содержат только списки хеш-сумм

[Профиль] [ЛС]
Показать сообщения:    
Ответить на тему

Текущее время: Сегодня 15:53

Часовой пояс: GMT + 4



Вы не можете начинать темы
Вы не можете отвечать на сообщения
Вы не можете редактировать свои сообщения
Вы не можете удалять свои сообщения
Вы не можете голосовать в опросах
Вы не можете прикреплять файлы к сообщениям
Вы не можете скачивать файлы