Несносные боссы 2 / Horrible Bosses 2 (Шон Андерс / Sean Anders) [2014, комедия, WEBRip] Dub + Eng

Ответить на тему
 
Автор Сообщение

user ®

Стаж: 7 лет 7 месяцев

Сообщений: 20008

Пост Пост: #1 от 12-Дек-2014 21:15

[Цитировать]

Несносные боссы 2 / Horrible Bosses 2
«Боссы - новые, методы - старые»
- Год выпуска: 2014
Страна: США
Жанр: Комедия
Продолжительность:: 01:48:21
Перевод: Профессиональный (дублированный) [звук с TS]
Оригинальная звуковая дорожка: Английская
Субтитры: Присутствуют вшитые китайские субтитры
-
Режиссер: Шон Андерс / Sean Anders
В ролях:: Джейсон Бейтман, Джейсон Судейкис, Чарли Дэй, Крис Пайн, Дженнифер Энистон, Кристоф Вальц, Джейми Фокс, Кевин Спейси, Джонатан Бэнкс, Линдсей Слоун
О фильме:: Ник, Дэйл и Курт решают сами стать боссами и открывают собственный бизнес. Но инвестор кидает их. Тогда они решают похитить его взрослого сына, чтобы получить выкуп и вернуть себе контроль над компанией.
-

-
Качество: WEBRip
Формат: AVI
Видео: XviD, 720x304 (2,35:1), 30 fps, 1924 kbps avg
Аудио 1: Russian AC3, 48 kHz 384 Kb/s 2/0 (L,R) ch
Аудио 2: English AC3, 48 kHz 384 Kb/s 2/0 (L,R) ch
Скачать: Семпл

Скриншоты MediaInfo
Общее
Полное имя : Nessn0snie.B0ssy.2.2014.Dt.WEBRip.2100MB.avi
Формат : AVI
Формат/Информация : Audio Video Interleave
Профиль формата : OpenDML
Размер файла : 2,05 Гбайт
Продолжительность : 1 ч. 48 м.
Общий поток : 2715 Кбит/сек
Программа кодирования : VirtualDubMod 1.5.10.3 | www.virtualdub-fr.org || (build 2550/release)
Библиотека кодирования : VirtualDubMod build 2550/release
Видео
Идентификатор : 0
Формат : MPEG-4 Visual
Профиль формата : Advanced Simple@L5
Параметр BVOP формата : 2
Параметр QPel формата : Нет
Параметр GMC формата : Без точки перехода
Параметр матрицы формата : Default (MPEG)
Идентификатор кодека : XVID
Идентификатор кодека/Подсказка : XviD
Продолжительность : 1 ч. 48 м.
Битрейт : 1924 Кбит/сек
Ширина : 720 пикселей
Высота : 304 пикселя
Соотношение сторон : 2,35:1
Частота кадров : 30,000 кадров/сек
Цветовое пространство : YUV
Субдискретизация насыщенности : 4:2:0
Битовая глубина : 8 бит
Тип развёртки : Прогрессивная
Метод сжатия : С потерями
Бит/(Пиксели*Кадры) : 0.293
Размер потока : 1,46 Гбайт (71%)
Библиотека кодирования : XviD 1.2.1 (UTC 2008-12-04)
Аудио #1
Идентификатор : 1
Формат : AC-3
Формат/Информация : Audio Coding 3
Расширение режима : CM (complete main)
Идентификатор кодека : 2000
Продолжительность : 1 ч. 48 м.
Вид битрейта : Постоянный
Битрейт : 384 Кбит/сек
Каналы : 2 канала
Расположение каналов : Front: L R
Частота : 48,0 КГц
Битовая глубина : 16 бит
Метод сжатия : С потерями
Размер потока : 298 Мбайт (14%)
Выравнивание : Разделение по промежуткам
Продолжительность промежутка : 33 мс. (1,00 видеокадр)
Время предзагрузки промежутка : 500 мс.
Аудио #2
Идентификатор : 2
Формат : AC-3
Формат/Информация : Audio Coding 3
Расширение режима : CM (complete main)
Идентификатор кодека : 2000
Продолжительность : 1 ч. 48 м.
Вид битрейта : Постоянный
Битрейт : 384 Кбит/сек
Каналы : 2 канала
Расположение каналов : Front: L R
Частота : 48,0 КГц
Битовая глубина : 16 бит
Метод сжатия : С потерями
Размер потока : 298 Мбайт (14%)
Выравнивание : Разделение по промежуткам
Продолжительность промежутка : 33 мс. (1,00 видеокадр)
Время предзагрузки промежутка : 500 мс.
Скачать

Скачать торрент!

Как скачивать? · Что такое торрент? · Рейтинг и ограничения

Сайт не распространяет и не хранит электронные версии произведений, а лишь предоставляет доступ к создаваемому пользователями каталогу ссылок на торрент-файлы, которые содержат только списки хеш-сумм

[Профиль] [ЛС]
Показать сообщения:    
Ответить на тему

Текущее время: Сегодня 12:00

Часовой пояс: GMT + 4



Вы не можете начинать темы
Вы не можете отвечать на сообщения
Вы не можете редактировать свои сообщения
Вы не можете удалять свои сообщения
Вы не можете голосовать в опросах
Вы не можете прикреплять файлы к сообщениям
Вы не можете скачивать файлы