Любовь и Роман (Евгений Соколов) [2014, Мелодрама, драма, HDTVRip]

Ответить на тему
 
Автор Сообщение

user ®

Стаж: 7 лет 7 месяцев

Сообщений: 20008

Пост Пост: #1 от 12-Дек-2014 14:55

[Цитировать]

Любовь и Роман
Жанр: Мелодрама, драма
Год выпуска: 2014
Продолжительность: 01:27:02
Режиссёр: Евгений Соколов
В ролях: Анна Здор, Александр Константинов, Ольга Сухарева, Алексей Демидов, Владимир Демидов
Описание: Выпускница медучилища Люба собирается замуж за Ивана, первого парня на селе. Но неожиданно в городе она знакомится с офицером Романом. Это любовь с первого взгляда. Молодые люди понимают, что они родственные души, но Люба прямо говорит, что скоро выходит замуж и даже приглашает Романа на свадьбу.Тем временем до Ивана доходят слухи, что Люба крутит шашни с заезжим офицером. Иван в бешенстве, накануне свадьбы он хочет изнасиловать Любу, но в день свадьбы появляется Роман и увозит Любу.Проходит 20 лет. Люба и Роман счастливо женаты, у них есть сын Егор. У Егора есть девушка Настя, молодые люди влюблены друг в друга. Но вскоре выясняется, что Настя – дочь Ивана, а Иван, ставший прокурором, быстро узнает, кто такой Егор и кто его родители. Иван ждет случая отомстить за свой позор.

Качество видео: HDTVRip [Исходник: HDTVRip]
Формат видео: AVI
Видео: XviD, 1060 Кбит/с, 656x368 (16:9), 25 кадр/с
Аудио: Русский, MP3, 48000 Гц, 128 Кбит/с, 2 канала (Стерео)

Автор рипа - ivandubskoj
MediaInfo
General
Complete name : Luybov.i.Roman.2014.HDTVRip.745MB.avi
Format : AVI
Format/Info : Audio Video Interleave
File size : 746 MiB
Duration : 1h 27mn
Overall bit rate : 1 198 Kbps
Writing application : VirtualDubMod 1.5.10.3 (build 2550/release)
Writing library : VirtualDubMod build 2550/release
Copyright : rip by ivandubskoj
Video
ID : 0
Format : MPEG-4 Visual
Format profile : Advanced Simple@L5
Format settings, BVOP : 2
Format settings, QPel : No
Format settings, GMC : No warppoints
Format settings, Matrix : Custom
Codec ID : XVID
Codec ID/Hint : XviD
Duration : 1h 27mn
Bit rate : 1 060 Kbps
Width : 656 pixels
Height : 368 pixels
Display aspect ratio : 16:9
Frame rate : 25.000 fps
Color space : YUV
Chroma subsampling : 4:2:0
Bit depth : 8 bits
Scan type : Progressive
Compression mode : Lossy
Bits/(Pixel*Frame) : 0.176
Stream size : 660 MiB (89%)
Writing library : XviD 73
Audio
ID : 1
Format : MPEG Audio
Format version : Version 1
Format profile : Layer 3
Codec ID : 55
Codec ID/Hint : MP3
Duration : 1h 27mn
Bit rate mode : Constant
Bit rate : 128 Kbps
Channel(s) : 2 channels
Sampling rate : 48.0 KHz
Compression mode : Lossy
Stream size : 79.7 MiB (11%)
Alignment : Aligned on interleaves
Interleave, duration : 40 ms (1.00 video frame)
Interleave, preload duration : 504 ms
Writing library : LAME3.99r
Encoding settings : -m s -V 4 -q 0 -lowpass 17 -b 128
Скриншот c названием фильма Скриншоты
Скачать

Скачать торрент!

Как скачивать? · Что такое торрент? · Рейтинг и ограничения

Сайт не распространяет и не хранит электронные версии произведений, а лишь предоставляет доступ к создаваемому пользователями каталогу ссылок на торрент-файлы, которые содержат только списки хеш-сумм

[Профиль] [ЛС]
Показать сообщения:    
Ответить на тему

Текущее время: Сегодня 03:12

Часовой пояс: GMT + 4



Вы не можете начинать темы
Вы не можете отвечать на сообщения
Вы не можете редактировать свои сообщения
Вы не можете удалять свои сообщения
Вы не можете голосовать в опросах
Вы не можете прикреплять файлы к сообщениям
Вы не можете скачивать файлы