Любовь и Роман (Евгений Соколов) [2014, Мелодрама, драма, HDTVRip]

Ответить на тему
 
Автор Сообщение

user ®

Стаж: 7 лет 7 месяцев

Сообщений: 20008

Пост Пост: #1 от 12-Дек-2014 14:55

[Цитировать]

Любовь и Роман
Жанр: Мелодрама, драма
Год выпуска: 2014
Продолжительность: 01:27:02
Режиссёр: Евгений Соколов
В ролях: Анна Здор, Александр Константинов, Ольга Сухарева, Алексей Демидов, Владимир Демидов
Описание: Выпускница медучилища Люба собирается замуж за Ивана, первого парня на селе. Но неожиданно в городе она знакомится с офицером Романом. Это любовь с первого взгляда. Молодые люди понимают, что они родственные души, но Люба прямо говорит, что скоро выходит замуж и даже приглашает Романа на свадьбу.Тем временем до Ивана доходят слухи, что Люба крутит шашни с заезжим офицером. Иван в бешенстве, накануне свадьбы он хочет изнасиловать Любу, но в день свадьбы появляется Роман и увозит Любу.Проходит 20 лет. Люба и Роман счастливо женаты, у них есть сын Егор. У Егора есть девушка Настя, молодые люди влюблены друг в друга. Но вскоре выясняется, что Настя – дочь Ивана, а Иван, ставший прокурором, быстро узнает, кто такой Егор и кто его родители. Иван ждет случая отомстить за свой позор.

Качество видео: HDTVRip [Исходник: HDTVRip]
Формат видео: AVI
Видео: XviD, 2199 Кбит/с, 720x400 (16:9), 25 кадр/с
Аудио: Русский, Dolby AC3, 48000 Гц, 192 Кбит/с, 2 канала (Стерео)

Автор рипа - ivandubskoj
MediaInfo
General
Complete name : Luybov.i.Roman.2014.HDTVRip.avi
Format : AVI
Format/Info : Audio Video Interleave
File size : 1.46 GiB
Duration : 1h 27mn
Overall bit rate : 2 406 Kbps
Writing application : VirtualDubMod 1.5.10.3 (build 2550/release)
Writing library : VirtualDubMod build 2550/release
Copyright : rip by ivandubskoj
Video
ID : 0
Format : MPEG-4 Visual
Format profile : Advanced Simple@L5
Format settings, BVOP : 1
Format settings, QPel : No
Format settings, GMC : No warppoints
Format settings, Matrix : Default (MPEG)
Codec ID : XVID
Codec ID/Hint : XviD
Duration : 1h 27mn
Bit rate : 2 199 Kbps
Width : 720 pixels
Height : 400 pixels
Display aspect ratio : 16:9
Frame rate : 25.000 fps
Color space : YUV
Chroma subsampling : 4:2:0
Bit depth : 8 bits
Scan type : Progressive
Compression mode : Lossy
Bits/(Pixel*Frame) : 0.306
Stream size : 1.34 GiB (92%)
Writing library : XviD 73
Audio
ID : 1
Format : AC-3
Format/Info : Audio Coding 3
Mode extension : CM (complete main)
Codec ID : 2000
Duration : 1h 27mn
Bit rate mode : Constant
Bit rate : 192 Kbps
Channel(s) : 2 channels
Channel positions : Front: L R
Sampling rate : 48.0 KHz
Bit depth : 16 bits
Compression mode : Lossy
Stream size : 120 MiB (8%)
Alignment : Split accross interleaves
Interleave, duration : 40 ms (1.00 video frame)
Interleave, preload duration : 500 ms
Скриншот c названием фильма Скриншоты
Скачать

Скачать торрент!

Как скачивать? · Что такое торрент? · Рейтинг и ограничения

Сайт не распространяет и не хранит электронные версии произведений, а лишь предоставляет доступ к создаваемому пользователями каталогу ссылок на торрент-файлы, которые содержат только списки хеш-сумм

[Профиль] [ЛС]
Показать сообщения:    
Ответить на тему

Текущее время: Сегодня 22:41

Часовой пояс: GMT + 4



Вы не можете начинать темы
Вы не можете отвечать на сообщения
Вы не можете редактировать свои сообщения
Вы не можете удалять свои сообщения
Вы не можете голосовать в опросах
Вы не можете прикреплять файлы к сообщениям
Вы не можете скачивать файлы