Волк с Уолл-стрит / The Wolf of Wall Street (Мартин Скорсезе / Martin Scorsese) [2013, США, драма, комедия, криминал, биография, BDRip 1080p] Dub + 2х AVO (Визгунов, Немахов) + VO (Деньщиков) + Sub Rus, Eng + Original Eng

Ответить на тему
 
Автор Сообщение

user ®

Стаж: 7 лет 7 месяцев

Сообщений: 20008

Пост Пост: #1 от 12-Дек-2014 01:50

[Цитировать]

Волк с Уолл-стрит / The Wolf of Wall Street
Страна: США
Студия: Red Granite Pictures, Sikelia Productions, Appian Way
Жанр: драма, комедия, криминал, биография
Год выпуска: 2013
Продолжительность: 02:59:52
Перевод 1: Профессиональный (дублированный) Blu-ray RUS
Перевод 2: Авторский (одноголосый закадровый) Визгунов
Перевод 3: Авторский (одноголосый закадровый) Немахов
Перевод 4: Одноголосый (закадровый) Деньщиков
Cубтитры: русские (BD RUS, Voronine, Notabenoid), английские (Full, SDH, SDH Colored)
Оригинальная аудиодорожка: английский
Режиссер: Мартин Скорсезе / Martin Scorsese
В ролях: Леонардо ДиКаприо, Джона Хилл, Марго Робби, Мэттью МакКонахи, Кайл Чандлер, Роб Райнер, Джон Фавро, Жан Дюжарден, Ши Уигхэм, Спайк Джонс
Описание: Джордан Белфорт основал одну из крупнейших брокерских контор в 1987 году, но десять лет спустя был осужден за отмывание денег и ряд прочих финансовых преступлений. Он справился с алкогольной и наркотической зависимостью, выработанной за время махинаций на Уолл-стрит, написал две книги и теперь читает лекции о том, как достичь успеха.


Тип релиза: BDRip 1080p [DON]
Контейнер: MKV
Видео: AVC, 1920x800, 16000 kbps, 23.976 fps
Аудио 1: Russian: 48 kHz, DTS, 3/2 (L,C,R,l,r) + LFE ch, ~1536.00 kbps avg |Blu-ray RUS|
Аудио 2: Ukrainian: 48 kHz, AC3, 3/2 (L,C,R,l,r) + LFE ch, 448.00 kbps |Blu-ray RUS|
Аудио 3: Russian: 48 kHz, DTS, 3/2 (L,C,R,l,r) + LFE ch, ~1536.00 kbps avg |Визгунов|
Аудио 4: Russian: 48 kHz, DTS, 3/2 (L,C,R,l,r) + LFE ch, ~1536.00 kbps avg |Немахов|
Аудио 5: Russian: 48 kHz, DTS, 3/2 (L,C,R,l,r) + LFE ch, ~1536.00 kbps avg |Деньщиков|
Аудио 6: English: 48 kHz, DTS, 3/2 (L,C,R,l,r) + LFE ch, ~1536.00 kbps avg |Original|
Чаптеры:есть

Доп.информация
За перевод С. Визгунова спасибо пользователям форума e180: foxlight, xerman13, tide, Andrey_Tula, Loki1982, zeleniy, Savely, uchitel538, luka69, safreks, Nick, dir, GaryH, v1111o, MyxAmoP, ZeDOK, Skoped, markinscor, STONECOLD, phaeton77, masta, Pro_Rock.
За перевод Ю. Немахова спасибо пользователям форума e180: foxlight, oleg-k, axl-dr, Loki1982, zeleniy, xerman13, kRIPtograf, anton966, Savely, Andrey_Tula, vik19662007, luka69, ANISKIN50, safreks, Nadoelo, Foots, 2vova2, kiruxa-k, carnivale, Pumamen, пуля, DMX-92, Chistobaev, GKillah, semargl, kabukiman, tide, Slimka, dvd100, Valen, GaryH, Марлон, denus, rammzez, Некрасов, v1111o, MyxAmoP, ZeDOK, Skazhutin, saigons, ARTYq, STONECOLD, masta.
За блюрей спасибо hdclub
x264 log
x264 [info]: frame I:2070 Avg QP:13.74 size:268159
x264 [info]: frame P:51598 Avg QP:16.54 size:115852
x264 [info]: frame B:205090 Avg QP:16.95 size: 82140
x264 [info]: consecutive B-frames: 1.4% 1.3% 7.3% 13.2% 15.9% 50.6% 5.0% 2.9% 2.4%
encoded 258758 frames, 2.12 fps, 17330.03 kb/s
MediaInfo
General
Unique ID : 187245530350662595040008345153490795079 (0x8CDE2D6922DD9EC8BE2C36D410EA3A47)
Complete name : D:\The.Wolf.of.Wall.Street.2013.1080p.BluRay.DTS.x264-Talian-.mkv
Format : Matroska
Format version : Version 2
File size : 31.8 GiB
Duration : 2h 59mn
Overall bit rate : 25.3 Mbps
Movie name : The Wolf of Wall Street-Talian-
Encoded date : UTC 2014-12-10 10:32:38
Writing application : mkvmerge v5.7.0 ('The Whirlwind') built on Jul 8 2012 20:08:51
Writing library : libebml v1.2.3 + libmatroska v1.3.0
Video
ID : 1
Format : AVC
Format/Info : Advanced Video Codec
Format profile : High@L4.1
Format settings, CABAC : Yes
Format settings, ReFrames : 5 frames
Codec ID : V_MPEG4/ISO/AVC
Duration : 2h 59mn
Bit rate : 16.8 Mbps
Width : 1 920 pixels
Height : 800 pixels
Display aspect ratio : 2.40:1
Frame rate : 23.976 fps
Color space : YUV
Chroma subsampling : 4:2:0
Bit depth : 8 bits
Scan type : Progressive
Bits/(Pixel*Frame) : 0.457
Stream size : 21.1 GiB (66%)
Title : DON
Writing library : x264 core 142 r2409kMod d6b4e63
Encoding settings : cabac=1 / ref=5 / deblock=1:-3:-3 / analyse=0x3:0x113 / me=umh / subme=11 / psy=1 / fade_compensate=0.00 / psy_rd=1.06:0.00 / mixed_ref=1 / me_range=32 / chroma_me=1 / trellis=2 / 8x8dct=1 / cqm=0 / deadzone=21,11 / fast_pskip=0 / chroma_qp_offset=-2 / threads=6 / lookahead_threads=1 / sliced_threads=0 / nr=0 / decimate=0 / interlaced=0 / bluray_compat=0 / constrained_intra=0 / fgo=0 / bframes=8 / b_pyramid=2 / b_adapt=2 / b_bias=0 / direct=3 / weightb=1 / open_gop=0 / weightp=2 / keyint=250 / keyint_min=24 / scenecut=40 / intra_refresh=0 / rc_lookahead=50 / rc=crf / mbtree=0 / crf=17.5000 / qcomp=0.70 / qpmin=0 / qpmax=69 / qpstep=4 / vbv_maxrate=50000 / vbv_bufsize=62500 / crf_max=0.0 / nal_hrd=none / filler=0 / ip_ratio=1.40 / pb_ratio=1.10 / aq=2:0.85 / zones=1103,1108,crf=15.9/8113,8213,crf=15.9/10025,10170,crf=15.9/10863,10931,crf=15.9/10977,11017,crf=15.9/20568,20700,crf=15.9/24147,24373,crf=15.9/25473,25696,crf=15.9/25911,25954,crf=15.9/26138,26204,crf=15.9/26321,26454,crf=15.9/26547,26687,crf=15.9/27037,27103,crf=15.9/27183,27306,crf=15.9/27362,27432,crf=15.9/27472,27544,crf=15.9/27582,27638,crf=15.9/27676,27748,crf=15.9/27801,27942,crf=15.9/28047,28211,crf=15.9/28340,28376,crf=15.9/31244,31371,crf=15.9/31457,31479,crf=15.9/31565,31692,crf=15.9/44708,44805,crf=15.9/58628,58688,crf=15.9/72470,72669,crf=15.9/72987,73086,crf=15.9/73419,73481,crf=15.9/73533,73641,crf=15.9/73762,73884,crf=15.9/75307,75515,crf=15.9/75907,76065,crf=15.9/76220,76291,crf=15.9/76461,76615,crf=15.9/93411,93468,crf=15.9/96276,96295,crf=15.9/96395,96498,crf=15.9/97269,97762,crf=15.9/101078,101104,crf=15.9/101121,101130,crf=15.9/115747,115901,crf=15.9/115945,116064,crf=15.9/116130,116200,crf=15.9/116447,116794,crf=15.9/117330,117628,crf=15.9/118628,118810,crf=15.9/147330,147383,crf=15.9/147693,147730,crf=15.9/147930,148150,crf=15.9/148203,148233,crf=15.9/148261,148354,crf=15.9/148909,149051,crf=15.9/149196,149225,crf=15.9/149464,149596,crf=15.9/149765,149824,crf=15.9/150019,150292,crf=15.9/150472,150502,crf=15.9/159930,160437,crf=15.9/166545,166876,crf=15.9/197565,197670,crf=15.9/197706,197822,crf=15.9/198677,198718,crf=15.9/202404,202445,crf=15.9/202494,202583,crf=15.9/103275,203391,crf=15.9/203429,203581,crf=15.9/203698,203765,crf=15.9/203981,204053,crf=15.9/204117,204182,crf=15.9/204227,204259,crf=15.9/204422,204811,crf=15.9/204841,205006,crf=15.9/205048,205166,crf=15.9/205223,205373,crf=15.9/205512,205704,crf=15.9/208712,208779,crf=15.9/208872,208915,crf=15.9/211374,211480,crf=15.9/217277,217289,crf=15.9/217354,217378,crf=15.9/217402,217543,crf=15.9/218954,219064,crf=15.9/219247,219340,crf=15.9/219566,219761,crf=15.9/220242,220314,crf=15.9/221821,221847,crf=15.9/232880,232903,crf=15.9/235175,235198,crf=15.9/245425,245474,crf=15.9
Language : English
Default : Yes
Forced : No
Audio #1
ID : 2
Format : DTS
Format/Info : Digital Theater Systems
Codec ID : A_DTS
Duration : 2h 59mn
Bit rate mode : Constant
Bit rate : 1 510 Kbps
Channel(s) : 6 channels
Channel positions : Front: L C R, Side: L R, LFE
Sampling rate : 48.0 KHz
Bit depth : 24 bits
Compression mode : Lossy
Stream size : 1.90 GiB (6%)
Title : DUB-Blu-ray RUS
Language : Russian
Default : Yes
Forced : No
Audio #2
ID : 3
Format : AC-3
Format/Info : Audio Coding 3
Mode extension : CM (complete main)
Format settings, Endianness : Big
Codec ID : A_AC3
Duration : 2h 59mn
Bit rate mode : Constant
Bit rate : 448 Kbps
Channel(s) : 6 channels
Channel positions : Front: L C R, Side: L R, LFE
Sampling rate : 48.0 KHz
Bit depth : 16 bits
Compression mode : Lossy
Stream size : 576 MiB (2%)
Title : DUB-Blu-ray RUS
Language : Ukrainian
Default : No
Forced : No
Audio #3
ID : 4
Format : DTS
Format/Info : Digital Theater Systems
Codec ID : A_DTS
Duration : 2h 59mn
Bit rate mode : Constant
Bit rate : 1 510 Kbps
Channel(s) : 6 channels
Channel positions : Front: L C R, Side: L R, LFE
Sampling rate : 48.0 KHz
Bit depth : 24 bits
Compression mode : Lossy
Stream size : 1.90 GiB (6%)
Title : AVO-Визгунов
Language : Russian
Default : No
Forced : No
Audio #4
ID : 5
Format : DTS
Format/Info : Digital Theater Systems
Codec ID : A_DTS
Duration : 2h 59mn
Bit rate mode : Constant
Bit rate : 1 510 Kbps
Channel(s) : 6 channels
Channel positions : Front: L C R, Side: L R, LFE
Sampling rate : 48.0 KHz
Bit depth : 24 bits
Compression mode : Lossy
Stream size : 1.90 GiB (6%)
Title : AVO-Немахов
Language : Russian
Default : No
Forced : No
Audio #5
ID : 6
Format : DTS
Format/Info : Digital Theater Systems
Codec ID : A_DTS
Duration : 2h 59mn
Bit rate mode : Constant
Bit rate : 1 510 Kbps
Channel(s) : 6 channels
Channel positions : Front: L C R, Side: L R, LFE
Sampling rate : 48.0 KHz
Bit depth : 24 bits
Compression mode : Lossy
Stream size : 1.90 GiB (6%)
Title : VO-Дмитрий Деньщиков
Language : Russian
Default : No
Forced : No
Audio #6
ID : 7
Format : DTS
Format/Info : Digital Theater Systems
Codec ID : A_DTS
Duration : 2h 59mn
Bit rate mode : Constant
Bit rate : 1 510 Kbps
Channel(s) : 6 channels
Channel positions : Front: L C R, Side: L R, LFE
Sampling rate : 48.0 KHz
Bit depth : 24 bits
Compression mode : Lossy
Stream size : 1.90 GiB (6%)
Title : Original
Language : English
Default : No
Forced : No
Text #1
ID : 8
Format : UTF-8
Codec ID : S_TEXT/UTF8
Codec ID/Info : UTF-8 Plain Text
Title : Sub-BD
Language : Russian
Default : No
Forced : No
Text #2
ID : 9
Format : UTF-8
Codec ID : S_TEXT/UTF8
Codec ID/Info : UTF-8 Plain Text
Title : Sub-Voronine
Language : Russian
Default : No
Forced : No
Text #3
ID : 10
Format : UTF-8
Codec ID : S_TEXT/UTF8
Codec ID/Info : UTF-8 Plain Text
Title : Sub-Notabenoid
Language : Russian
Default : No
Forced : No
Text #4
ID : 11
Format : UTF-8
Codec ID : S_TEXT/UTF8
Codec ID/Info : UTF-8 Plain Text
Title : Sub-full
Language : English
Default : No
Forced : No
Text #5
ID : 12
Format : UTF-8
Codec ID : S_TEXT/UTF8
Codec ID/Info : UTF-8 Plain Text
Title : Sub-SDH
Language : English
Default : No
Forced : No
Text #6
ID : 13
Format : UTF-8
Codec ID : S_TEXT/UTF8
Codec ID/Info : UTF-8 Plain Text
Title : Sub-SDH-Colored
Language : English
Default : No
Forced : No
Menu
00:00:00.000 : en:00:00:00.000
00:07:55.934 : en:00:07:55.934
00:14:17.857 : en:00:14:17.857
00:21:31.415 : en:00:21:31.415
00:32:08.093 : en:00:32:08.093
00:40:14.495 : en:00:40:14.495
00:48:33.577 : en:00:48:33.577
00:55:21.777 : en:00:55:21.777
01:01:56.046 : en:01:01:56.046
01:07:00.475 : en:01:07:00.475
01:11:28.910 : en:01:11:28.910
01:19:49.868 : en:01:19:49.868
01:29:06.883 : en:01:29:06.883
01:37:47.403 : en:01:37:47.403
01:45:11.931 : en:01:45:11.931
01:54:39.998 : en:01:54:39.998
02:03:20.184 : en:02:03:20.184
02:07:28.015 : en:02:07:28.015
02:17:12.850 : en:02:17:12.850
02:25:25.467 : en:02:25:25.467
02:32:08.619 : en:02:32:08.619
02:36:38.723 : en:02:36:38.723
02:44:19.266 : en:02:44:19.266
02:53:04.291 : en:02:53:04.291
Скриншоты
Source vs Encode


Скачать

Скачать торрент!

Как скачивать? · Что такое торрент? · Рейтинг и ограничения

Сайт не распространяет и не хранит электронные версии произведений, а лишь предоставляет доступ к создаваемому пользователями каталогу ссылок на торрент-файлы, которые содержат только списки хеш-сумм

[Профиль] [ЛС]
Показать сообщения:    
Ответить на тему

Текущее время: Сегодня 10:52

Часовой пояс: GMT + 4



Вы не можете начинать темы
Вы не можете отвечать на сообщения
Вы не можете редактировать свои сообщения
Вы не можете удалять свои сообщения
Вы не можете голосовать в опросах
Вы не можете прикреплять файлы к сообщениям
Вы не можете скачивать файлы