Уничтоженный рай / Убийственный рай / Paradise Murdered / Geuk-rak-do Sal-in-sa-geon (Ким Хан Мин / Kim Han-min) [2007, Южная Корея, драма, мистика, HDRip] VO [den904] + Original Kor + Sub (rus, eng)

Ответить на тему
 
Автор Сообщение

user ®

Стаж: 13 лет

Сообщений: 15071

Пост Пост: #1 от 11-Дек-2014 22:40

[Цитировать]

Уничтоженный рай / Убийственный рай / Paradise Murdered / Geuk-rak-do Sal-in-sa-geon- -Страна: Южная Корея
Жанр: драма, мистика
Год выпуска: 2007
Продолжительность: 01:50:28-Перевод: Одноголосый закадровый [den904]-Cубтитры: русские, английские [отдельно]
Оригинальная аудиодорожка: корейский
Режиссер: Ким Хан Мин / Kim Han-min
В ролях: Ан Нэ Сан, Чу-бон Чои, Чон Ман Сик, Бён-Чхун Ким, Ким Ин Мун, Даэ-хийон Ли...
Описание: Райский остров — тихое место, на котором проживают жители небольшой деревеньки. Однажды к ним приезжает добрый доктор, который всех лечит и спасает и кажется почти что святым. Через некоторое время на острове начинает происходить череда запутанных убийств, которые суеверные жители связывают с проклятием Целомудренной Леди — вдовы, запертой и заморенной голодом, старостой этого острова. Отсутствие каких-либо достоверных фактов, приводит к нарастанию взаимных подозрений и новым убийствам, но правду, как шило — в мешке не утаишь, и настоящий убийца будет раскрыт и не избегнет наказания…
Релиз от -
Сэмпл: http://multi-up.com/1019630
Качество видео: HDRip
Формат видео: AVI
Видео: MPEG-4 Visual at 1986 Кбит/сек; 704 x 288 (2.444) at 23.976 fps
Аудио: AC-3 at 384 Кбит/сек; 6 каналов, 48,0 КГц [VO]
Аудио: AC-3 at 448 Кбит/сек; 6 каналов, 48,0 КГц [Kor]
Автор -
MediaInfo
Общее
Полное имя : D:\Фильмы\Азиатские\Убийственный рай\Paradise Murdered.2007.HDRip.XviD.2200MB. rip by [Assassin's Creed]\Paradise Murdered.2007.HDRip.XviD.2200MB. rip by [Assassin's Creed].avi
Формат : AVI
Формат/Информация : Audio Video Interleave
Профиль формата : OpenDML
Размер файла : 2,19 Гбайт
Продолжительность : 1 ч. 50 м.
Общий поток : 2835 Кбит/сек
Программа кодирования : VirtualDubMod 1.5.10.2 (build 2540/release)
Библиотека кодирования : VirtualDubMod build 2540/release
Видео
Идентификатор : 0
Формат : MPEG-4 Visual
Профиль формата : Advanced Simple@L5
Параметр BVOP формата : 1
Параметр QPel формата : Нет
Параметр GMC формата : Без точки перехода
Параметр матрицы формата : Default (MPEG)
Идентификатор кодека : XVID
Идентификатор кодека/Подсказка : XviD
Продолжительность : 1 ч. 50 м.
Битрейт : 1986 Кбит/сек
Ширина : 704 пикселя
Высота : 288 пикселей
Соотношение сторон : 2,40:1
Частота кадров : 23,976 кадра/сек
Цветовое пространство : YUV
Субдискретизация насыщенности : 4:2:0
Битовая глубина : 8 бит
Тип развёртки : Прогрессивная
Метод сжатия : С потерями
Бит/(Пиксели*Кадры) : 0.408
Размер потока : 1,53 Гбайт (70%)
Библиотека кодирования : XviD 1.2.1 (UTC 2008-12-04)
Аудио #1
Идентификатор : 1
Формат : AC-3
Формат/Информация : Audio Coding 3
Расширение режима : CM (complete main)
Параметр Endianness формата : Big
Идентификатор кодека : 2000
Продолжительность : 1 ч. 50 м.
Вид битрейта : Постоянный
Битрейт : 384 Кбит/сек
Каналы : 6 каналов
Расположение каналов : Front: L C R, Side: L R, LFE
Частота : 48,0 КГц
Битовая глубина : 16 бит
Метод сжатия : С потерями
Размер потока : 303 Мбайт (14%)
Выравнивание : Разделение по промежуткам
Продолжительность промежутка : 42 мс. (1,00 видеокадр)
Время предзагрузки промежутка : 500 мс.
Аудио #2
Идентификатор : 2
Формат : AC-3
Формат/Информация : Audio Coding 3
Расширение режима : CM (complete main)
Параметр Endianness формата : Big
Идентификатор кодека : 2000
Продолжительность : 1 ч. 50 м.
Вид битрейта : Постоянный
Битрейт : 448 Кбит/сек
Каналы : 6 каналов
Расположение каналов : Front: L C R, Side: L R, LFE
Частота : 48,0 КГц
Битовая глубина : 16 бит
Метод сжатия : С потерями
Размер потока : 354 Мбайт (16%)
Выравнивание : Разделение по промежуткам
Продолжительность промежутка : 42 мс. (1,00 видеокадр)
Время предзагрузки промежутка : 500 мс.
Общее
Полное имя : D:\Фильмы\Азиатские\Убийственный рай\Paradise Murdered.2007.HDRip.XviD.2200MB. rip by [Assassin's Creed]\Paradise Murdered.2007.HDRip.XviD.2200MB. rip by [Assassin's Creed].eng.srt
Формат : SubRip
Размер файла : 84,6 Кбайт
Текст
Формат : SubRip
Метод сжатия : Без потерь
Общее
Полное имя : D:\Фильмы\Азиатские\Убийственный рай\Paradise Murdered.2007.HDRip.XviD.2200MB. rip by [Assassin's Creed]\Paradise Murdered.2007.HDRip.XviD.2200MB. rip by [Assassin's Creed].rus.srt
Формат : SubRip
Размер файла : 107 Кбайт
Текст
Формат : SubRip
Метод сжатия : Без потерь
Скриншот c названием фильма Скриншоты
Скачать

Скачать торрент! Уничтоженный рай / Убийственный рай / Paradise Murdered / Geuk-rak-do Sal-in-sa-geon (Ким Хан Мин / Kim Han-min) [2007, Южная Корея, драма, мистика, HDRip] VO [den904] + Original Kor + Sub (rus, eng)

Как скачивать? · Что такое торрент? · Рейтинг и ограничения

Сайт не распространяет и не хранит электронные версии произведений, а лишь предоставляет доступ к создаваемому пользователями каталогу ссылок на торрент-файлы, которые содержат только списки хеш-сумм

[Профиль] [ЛС]
Показать сообщения:    
Ответить на тему

Текущее время: Сегодня 17:39

Часовой пояс: GMT + 4



Вы не можете начинать темы
Вы не можете отвечать на сообщения
Вы не можете редактировать свои сообщения
Вы не можете удалять свои сообщения
Вы не можете голосовать в опросах
Вы не можете прикреплять файлы к сообщениям
Вы не можете скачивать файлы