Подозрения мистера Уичера. / The Suspicions of Mr Whicher (Дэвид Блэр / David Blair, Джеффри Сакс / Geoff Sax) [2014, Детектив, Драма, HDTVRip] Original + Rus Subs

Ответить на тему
 
Автор Сообщение

user ®

Стаж: 7 лет 7 месяцев

Сообщений: 20008

Пост Пост: #1 от 11-Дек-2014 22:40

[Цитировать]

The Suspicions of Mr Whicher / Подозрения мистера Уичера.- Год выпуска: 2014
Страна: Великобритания
Жанр: Детектив, драма
Продолжительность: 90 мин
Перевод: Русские субтитры
Русские субтитры: Нотабеноид, авторы: izolenta, landaland, victoria_vn
Режиссёр: David Blair, Geoff Sax
В ролях:
Jack Whicher - Paddy Considine
Sir Edward Shore - Nicholas Jones
Capt Charles - John Heffernan
Mrs Piper- Nancy Carroll
Katherine - Laura Frances-Morgan
Miss Khan - Ellora Torchia
Georgina - Kate Fahy
Roshan - Akshay Kumar
Lady Jane Coverley - Helen Bradbury
Joshua Hallows - Luke Thompson
Ruth Hallows - Joanna Horton
Sir Henry Coverley - Risteard Cooper
Matthew Thorogood - Alex Robertson

Описание:
1 серия: Beyond the Pale - За гранью приличий.
На этот раз к Учеру с просьбой о частном расследовании обращается его бывший начальник, бывший министр внутренних дел Эдвард Шор. Он просит найти людей, угрожающих молодой семье его сына Чарльза, который недавно вернулся в Лондон из Индии. Шор опасается, что разгоревшийся скандал может иметь разрушительные последствия для его карьеры и настаивает, чтобы расследование проходило без участия полиции, даже после того, как происходит убийство.
2 серия: The Ties That Bind - Узы, которые связывают.
Уичер занимается простым, казалось бы, делом сэра Генри Каверли, который подозревает свою жену Джейн в неверности. В результате расследования Уичер выходит на любовника леди Джейн, Мэтью Торогуда, который должен быть вызван в суд, как главный свидетель по делу о разводе. Однако, в день суда тот найден мёртвым...
Доп. информация:
Первый фильм был снят по мотивам романа Кейт Саммерскейл, и поскольку герой полюбился зрителям, серия фильмов про частного детектива Джека Уичера была продолжена по написанным сценариям. На данный момент вышло 4 фильма, поделенные на 3 сезона.
Ссылка на предыдущие и альтернативные раздачи:
[url=http://***/forum/tracker.php?f=2093&nm=The+Suspicions+of+Mr+Whicher]http://***/forum/tracker.php?f=2093&n...ns+of+Mr+Whicher[/url]
Сэмпл: http://multi-up.com/1000189
Качество: HDTVRip
Формат: mp4
Видео кодек:
Аудио кодек:
Видео: AVC at 440 Кбит/сек, 720 x 404 (1.782) at 25.000 fps
Аудио: AAC at 124 Кбит/сек, 2 канала, 48,0 КГц
MI
Формат : MPEG-4
Профиль формата : Base Media
Идентификатор кодека : isom
Размер файла : 362 Мбайт
Продолжительность : 1 ч. 28 м.
Режим общего битрейта : Переменный
Общий поток : 568 Кбит/сек
Видео
Идентификатор : 2
Формат : AVC
Формат/Информация : Advanced Video Codec
Профиль формата : High@L3.1
Параметр CABAC формата : Да
Параметр ReFrames формата : 5 кадров
Идентификатор кодека : avc1
Идентификатор кодека/Информация : Advanced Video Coding
Продолжительность : 1 ч. 28 м.
Битрейт : 440 Кбит/сек
Максимальный битрейт : 1840 Кбит/сек
Ширина : 720 пикселей
Высота : 404 пикселя
Соотношение сторон : 16:9
Режим частоты кадров : Постоянный
Частота кадров : 25,000 кадров/сек
Цветовое пространство : YUV
Субдискретизация насыщенности : 4:2:0
Битовая глубина : 8 бит
Тип развёртки : Прогрессивная
Бит/(Пиксели*Кадры) : 0.061
Размер потока : 280 Мбайт (77%)
Библиотека кодирования : x264 core 142 r2479 dd79a61
Настройки программы : cabac=1 / ref=5 / deblock=1:0:0 / analyse=0x3:0x113 / me=umh / subme=8 / psy=1 / psy_rd=1.00:0.00 / mixed_ref=1 / me_range=16 / chroma_me=1 / trellis=1 / 8x8dct=1 / cqm=0 / deadzone=21,11 / fast_pskip=1 / chroma_qp_offset=-2 / threads=12 / lookahead_threads=2 / sliced_threads=0 / nr=0 / decimate=1 / interlaced=0 / bluray_compat=0 / constrained_intra=0 / bframes=3 / b_pyramid=2 / b_adapt=2 / b_bias=0 / direct=3 / weightb=1 / open_gop=0 / weightp=2 / keyint=250 / keyint_min=25 / scenecut=40 / intra_refresh=0 / rc_lookahead=50 / rc=crf / mbtree=1 / crf=19.0 / qcomp=0.60 / qpmin=0 / qpmax=69 / qpstep=4 / ip_ratio=1.40 / aq=1:1.00
Коэффициенты матрицы : BT.709
Аудио
Идентификатор : 1
Формат : AAC
Формат/Информация : Advanced Audio Codec
Профиль формата : LC
Идентификатор кодека : 40
Продолжительность : 1 ч. 28 м.
Вид битрейта : Переменный
Битрейт : 124 Кбит/сек
Максимальный битрейт : 130 Кбит/сек
Каналы : 2 канала
Расположение каналов : Front: L R
Частота : 48,0 КГц
Метод сжатия : С потерями
Размер потока : 78,8 Мбайт (22%)
Скриншоты

[/IMG][/URL]
Список серий
1. Beyond the Pale - За гранью приличий
2. The Ties That Bind - Узы, которые связывают
Внимание, раздача ведется путем добавления новых серий
Раздача ведётся путём добавления новых серий; при каждом добавлении создаётся новый торрент. Чтобы начать докачку новой серии, пользователям необходимо сделать следующее:
(1) остановить скачивание,
(2) удалить старый торрент у себя из клиента (старые серии удалять не надо),
(3) скачать новый торрент и запустить его у себя в клиенте вместо старого, при этом указать клиенту путь в старую папку куда и должно происходить скачивание новых серий.
Ваш клиент при этом должен произвести хеширование (проверку) старой папки (если не производит сам - помогите ему сделать это), и будет докачивать только те серии которых у вас ещё нет. Старые серии при этом не удаляются, а продолжают раздаваться!
Eсли вы уже удалили старые серии, то предотвратить повторную закачку старых серий можно, отжав галочку в соответствующих местах при запуске нового торрента. По возможности, желательно не удалять старые серии как можно дольше чтобы релизёр не столько продолжал раздавать старые серии, а смог сконцентрироваться на новых.
Британские детективные сериалы [url=http://***/forum/viewtopic.php?t=2130980]ЗДЕСЬ[/url]
Скачать

Скачать торрент!

Как скачивать? · Что такое торрент? · Рейтинг и ограничения

Сайт не распространяет и не хранит электронные версии произведений, а лишь предоставляет доступ к создаваемому пользователями каталогу ссылок на торрент-файлы, которые содержат только списки хеш-сумм

[Профиль] [ЛС]
Показать сообщения:    
Ответить на тему

Текущее время: Сегодня 13:40

Часовой пояс: GMT + 4



Вы не можете начинать темы
Вы не можете отвечать на сообщения
Вы не можете редактировать свои сообщения
Вы не можете удалять свои сообщения
Вы не можете голосовать в опросах
Вы не можете прикреплять файлы к сообщениям
Вы не можете скачивать файлы