Укради мою жену / Life of Crime (Дэниэл Шехтер / Daniel Schechter) [2013, США, криминал, драма, комедия, BDRip] Dub R5

Ответить на тему
 
Автор Сообщение

user ®

Стаж: 7 лет 7 месяцев

Сообщений: 20008

Пост Пост: #1 от 11-Дек-2014 22:40

[Цитировать]

Укради мою жену / Life of Crime
«Right target. Wrong woman»
-Страна: США / Abbolita Productions, The Gotham Group, Starstream Entertainment, Venture Forth
Жанр: криминал, драма, комедия
Год выпуска: 2013
Продолжительность: 01:40:48
Перевод: Профессиональный (дублированный) лицензия R5
Cубтитры: нет
Режиссёр: Дэниэл Шехтер / Daniel Schechter
В ролях: Дженнифер Энистон, Мос Деф, Айла Фишер, Уилл Форте, Марк Бун Джуниор, Тим Роббинс, Джон Хоукс, Клеа Льюис, Чарли Тахэн, Кевин Корригэн.
Описание: Когда двое непутевых преступников похитили жену коррумпированного застройщика, они совсем не ожидали, что супруг не захочет вызволять благоверную. Вместо того чтобы заплатить преступникам выкуп, он скрывается на Багамах с любовницей. В результате сюжет принимает неожиданный поворот…-Рейтинг
imdb.com: 5.80 (5 817)
kinopoisk.ru: 5.515 (3 412)
MPAA: - лицам до 17 лет обязательно присутствие взрослого-Сэмпл: http://multi-up.com/1019453-Качество видео: BDRip [Life.of.Crime.2014.D.BDRemux.ELEKTRI4KA.mkv]
Формат видео: AVI
Видео: XviD build 65, 720x304 (2.35:1), 23.976 fps, ~1620 kbps avg, 0.309 bit/pixel
Аудио: 48 kHz, AC3 Dolby Digital, 3/2 (L,C,R,l,r) + LFE ch, ~448 kbps avg (Dub)
-MediaInfo
Общее
Полное имя : D:\Life.of.Crime.2013.Dub.BDRip.1,46Gb.XviD.AC3.avi
Формат : AVI
Формат/Информация : Audio Video Interleave
Размер файла : 1,46 Гбайт
Продолжительность : 1 ч. 40 м.
Общий поток : 2077 Кбит/сек
Название фильма : Life of Crime 2013
Режиссёр : Daniel Schechter
Дата записи : 14.11.2014
Программа кодирования : VirtualDubModRus 1.5.10.2 (build 2542/release)
Библиотека кодирования : VirtualDubMod build 2542/release
Правообладатель : ***
Примечание : BDRip by MooN_WalkeR
Видео
Идентификатор : 0
Формат : MPEG-4 Visual
Профиль формата : Advanced Simple@L5
Параметр BVOP формата : 1
Параметр QPel формата : Нет
Параметр GMC формата : Без точки перехода
Параметр матрицы формата : Выборочная
Идентификатор кодека : XVID
Идентификатор кодека/Подсказка : XviD
Продолжительность : 1 ч. 40 м.
Битрейт : 1620 Кбит/сек
Ширина : 720 пикселей
Высота : 304 пикселя
Соотношение сторон : 2,35:1
Частота кадров : 23,976 кадра/сек
Цветовое пространство : YUV
Субдискретизация насыщенности : 4:2:0
Битовая глубина : 8 бит
Тип развёртки : Прогрессивная
Метод сжатия : С потерями
Бит/(Пиксели*Кадры) : 0.309
Размер потока : 1,14 Гбайт (78%)
Библиотека кодирования : XviD 65
Аудио
Идентификатор : 1
Формат : AC-3
Формат/Информация : Audio Coding 3
Расширение режима : CM (complete main)
Параметр Endianness формата : Big
Идентификатор кодека : 2000
Продолжительность : 1 ч. 40 м.
Вид битрейта : Постоянный
Битрейт : 448 Кбит/сек
Каналы : 6 каналов
Расположение каналов : Front: L C R, Side: L R, LFE
Частота : 48,0 КГц
Битовая глубина : 16 бит
Метод сжатия : С потерями
Размер потока : 323 Мбайт (22%)
Выравнивание : Разделение по промежуткам
Продолжительность промежутка : 42 мс. (1,00 видеокадр)
Время предзагрузки промежутка : 500 мс.
Заголовок : Dub
Скриншоты
Скачать

Скачать торрент!

Как скачивать? · Что такое торрент? · Рейтинг и ограничения

Сайт не распространяет и не хранит электронные версии произведений, а лишь предоставляет доступ к создаваемому пользователями каталогу ссылок на торрент-файлы, которые содержат только списки хеш-сумм

[Профиль] [ЛС]
Показать сообщения:    
Ответить на тему

Текущее время: Сегодня 04:25

Часовой пояс: GMT + 4



Вы не можете начинать темы
Вы не можете отвечать на сообщения
Вы не можете редактировать свои сообщения
Вы не можете удалять свои сообщения
Вы не можете голосовать в опросах
Вы не можете прикреплять файлы к сообщениям
Вы не можете скачивать файлы