Не унывай! / Don\'t Lose Heart / Kujikenaide (Ёсихиро Фукагава / Yoshihiro Fukagawa) [2013, Япония, мелодрама, DVDRip] Sub Rus

Ответить на тему
 
Автор Сообщение

user ®

Стаж: 13 лет

Сообщений: 15071

Пост Пост: #1 от 11-Дек-2014 19:30

[Цитировать]

Не унывай! / Don't Lose Heart / Kujikenaide / くじけないで
Страна: Япония
Жанр: мелодрама
Год выпуска: 2013
Продолжительность: 02:08:23
Перевод: Субтитры русские - перевод с японскоого [url=http://***/forum/tracker.php?rid=6473541]дед_сто_лет[/url]©
Оригинальная аудиодорожка: японский
Режиссер: [url=http://***/forum/tracker.php?nm=Yoshihiro%20Fukagawa]Ёсихиро Фукагава / Yoshihiro Fukagawa[/url]
В ролях: Каору ЯТИГУСА, Тэцуя ТАКЭДА, Ран ИТО, Мана АСИДА, Мидзухо СУДЗУКИ, Пиэру ТАКИ, Рэй ДАН, Юскэ КАМИДЗИ
Описание: Реконструкция жизни популярной поэтессы Тоё Сибата (1911 - 2013), которая начала писать стихи в возрасте 92 лет. В 2009 году вышел первый сборник её стихов "Kujikenaide" (″Не унывай!″). Всего было продано более 1,5 миллионов экземпляров этой книги.©
Ещё один фильм про известную японскую поэтессу - [url=http://***/forum/viewtopic.php?t=4708143]Мисудзу / Misuzu / みすゞ - 2001[/url]
> > > > > > >
Качество видео: DVDRip
Формат видео: AVI
Видео: 720x400 (1.80:1), 23.976 fps, XviD build 50 ~1179 kbps avg, 0.17 bit/pixel
Аудио: 48 kHz, AC3 Dolby DigitаI, 3/2 (L,C,R,l,r) + LFE ch, ~448 kbps
Формат субтитров: softsub (SRT)
Доп. информация о субтитрах: дед_сто_лет
Пример субтитров
362
00:33:43,354 --> 00:33:47,030
Молодая женщина умерла раньше нас.
363
00:33:47,526 --> 00:33:50,530
Такие короли,
как Кодзи Цурута...
364
00:33:50,666 --> 00:33:53,000
Юдзиро Исихара и Хибари Мисора
365
00:33:53,000 --> 00:33:54,537
... умерли во цвете лет.
366
00:33:55,200 --> 00:34:01,651
“Падает снег”
"Эра Сёва уходит в прошлое"
367
00:34:21,326 --> 00:34:22,634
Кэнъити?
368
00:34:25,297 --> 00:34:27,174
Папа дома?
369
00:34:27,299 --> 00:34:29,472
Он работает. Позвать его?
370
00:34:29,568 --> 00:34:30,546
Нет. Ничего.
371
00:34:31,403 --> 00:34:32,575
Послушай...
372
00:34:32,737 --> 00:34:36,413
Мой бывший сотрудник
Бидзэндзима-сан...
373
00:34:36,908 --> 00:34:38,251
...умер.
374
00:34:38,376 --> 00:34:40,356
Я очень обязан этому человеку.
375
00:34:40,478 --> 00:34:43,550
Ты не могла бы одолжить мне 3000 йен?
376
00:34:44,416 --> 00:34:47,090
Я в последнее время растолстел.
377
00:34:47,219 --> 00:34:51,827
Мне нужно купить новый костюм.
378
00:34:52,057 --> 00:34:53,161
А тут неотложное дело.
379
00:34:53,258 --> 00:34:55,238
Требуется моя помощь там и сям.
380
00:34:55,360 --> 00:34:58,170
Однако в этом месяце у меня кризис.
381
00:34:58,263 --> 00:35:00,539
Но я сейчас в поисках...
382
00:35:00,665 --> 00:35:01,439
Кэнъити.
383
00:35:01,600 --> 00:35:02,408
Что?
384
00:35:02,534 --> 00:35:06,946
Бидзэндзима-сан умер
весной позапрошлого года.
385
00:35:09,608 --> 00:35:11,110
Ой... но это...
MediaInfo
General
Complete name : C:\Torrents\[ASIA]\Kujike_naide(2013)Fukagawa\KUJIKE_NAIDE.avi
Format : AVI
Format/Info : Audio Video Interleave
File size : 1.47 GiB
Duration : 2h 8mn
Overall bit rate : 1 634 Kbps
Writing application : VirtualDubMod 1.5.4.1 (build 2178/release)
Writing library : VirtualDubMod build 2178/release
Video
ID : 0
Format : MPEG-4 Visual
Format profile : Advanced Simple@L5
Format settings, BVOP : No
Format settings, QPel : No
Format settings, GMC : No warppoints
Format settings, Matrix : Custom
Codec ID : XVID
Codec ID/Hint : XviD
Duration : 2h 8mn
Bit rate : 1 179 Kbps
Width : 720 pixels
Height : 400 pixels
Display aspect ratio : 16:9
Frame rate : 23.976 fps
Color space : YUV
Chroma subsampling : 4:2:0
Bit depth : 8 bits
Scan type : Progressive
Compression mode : Lossy
Bits/(Pixel*Frame) : 0.171
Stream size : 1.06 GiB (72%)
Writing library : XviD 1.2.1 (UTC 2008-12-04)
Audio
ID : 1
Format : AC-3
Format/Info : Audio Coding 3
Mode extension : CM (complete main)
Codec ID : 2000
Duration : 2h 8mn
Bit rate mode : Constant
Bit rate : 448 Kbps
Channel(s) : 6 channels
Channel positions : Front: L C R, Side: L R, LFE
Sampling rate : 48.0 KHz
Bit depth : 16 bits
Compression mode : Lossy
Stream size : 411 MiB (27%)
Alignment : Split accross interleaves
Interleave, duration : 96 ms (2.30 video frames)
Interleave, preload duration : 96 ms
Language : Japanese
Скриншот c названием фильма Скриншоты
Скачать

Скачать торрент! Не унывай! / Don\'t Lose Heart / Kujikenaide (Ёсихиро Фукагава / Yoshihiro Fukagawa) [2013, Япония, мелодрама, DVDRip] Sub Rus

Как скачивать? · Что такое торрент? · Рейтинг и ограничения

Сайт не распространяет и не хранит электронные версии произведений, а лишь предоставляет доступ к создаваемому пользователями каталогу ссылок на торрент-файлы, которые содержат только списки хеш-сумм

[Профиль] [ЛС]
Показать сообщения:    
Ответить на тему

Текущее время: Сегодня 21:34

Часовой пояс: GMT + 4



Вы не можете начинать темы
Вы не можете отвечать на сообщения
Вы не можете редактировать свои сообщения
Вы не можете удалять свои сообщения
Вы не можете голосовать в опросах
Вы не можете прикреплять файлы к сообщениям
Вы не можете скачивать файлы