Наша династия / Hamara Khandaan (Анвар Паша / Anwar Pasha) [1988, Индия, Мелодрама, DVDRip] DVO (Фильм-Экспорт) + Sub Rus (на песни)

Ответить на тему
 
Автор Сообщение

user ®

Стаж: 12 лет

Сообщений: 15092

Пост Пост: #1 от 11-Дек-2014 19:30

[Цитировать]

Наша династия / Hamara Khandaan
Страна: Индия
Жанр: Мелодрама
Год выпуска: 1988
Продолжительность: 02:23:09
Перевод: Профессиональный (двухголосый закадровый) Фильм-Экспорт
Cубтитры: русские (вшитые, только на тексты песен) Керелис
Режиссер: Анвар Паша / Anwar Pasha
В ролях: Риши Капур, Фарха Нааз, Аша Парекх, Амриш Пури, Ом Шивпури, Рима Лагу, Алок Натх, Киран Джунеджа
Описание: По индийским традициям наследником династии является сын. Однако в богатой семье Тхапура рождается уже третья девочка… Врач предлагает подменить ее в роддоме на мальчика, оставшегося сиротой. Девочку отдают в малообеспеченную семью. Проходят годы, дети выросли, случайно встретились и полюбили друг друга. Родители, как обычно, против неравного брака, но любовь не сдается без борьбы…
Доп. информация: Релиз: Кинозал.ТВ
Фильм озвучен на к/с "Фильм-Экспорт" в 1993 году.
Текст читают Владимир Герасимов и Наталья Гурзо.
Перевод субтитров - Керелис (Спасибо!)
Сведение звука: oktober (Спасибо!)
Сэмпл: http://multi-up.com/1019070
Качество видео: DVDRip
Формат видео: AVI
Видео: XviD MPEG-4, 640x352 (1.82:1), 29.970 fps, 1847 kbps avg
Аудио: AC3 Dolby Digital, 48 kHz, 2/0 (L,R) ch, 192 kbps
MediaInfo
General
Complete name : F:\Nasha.Dinastiya.1988.DVDRip.XviD.Oktober.avi
Format : AVI
Format/Info : Audio Video Interleave
Format profile : OpenDML
File size : 2.05 GiB
Duration : 2h 23mn
Overall bit rate : 2 047 Kbps
Writing application : VirtualDubMod 1.5.10.3 | www.virtualdub-fr.org || (build 2550/release)
Writing library : VirtualDubMod build 2550/release
Video
ID : 0
Format : MPEG-4 Visual
Format profile : Simple@L1
Format settings, BVOP : No
Format settings, QPel : No
Format settings, GMC : No warppoints
Format settings, Matrix : Default (H.263)
Codec ID : XVID
Codec ID/Hint : XviD
Duration : 2h 23mn
Bit rate : 1 840 Kbps
Width : 640 pixels
Height : 352 pixels
Display aspect ratio : 16/9
Frame rate : 29.970 fps
Resolution : 24 bits
Colorimetry : 4:2:0
Scan type : Progressive
Bits/(Pixel*Frame) : 0.273
Stream size : 1.84 GiB (90%)
Writing library : Lavc53.33.0
Audio
ID : 1
Format : AC-3
Format/Info : Audio Coding 3
Codec ID : 2000
Duration : 2h 23mn
Bit rate mode : Constant
Bit rate : 192 Kbps
Channel(s) : 2 channels
Channel positions : L R
Sampling rate : 48.0 KHz
Stream size : 197 MiB (9%)
Alignment : Split accross interleaves
Interleave, duration : 33 ms (1.00 video frame)
Interleave, preload duration : 500 ms
Скриншоты Сравнения
[url=http://***/forum/viewtopic.php?t=4090780]http://***/forum/viewtopic.php?t=4090780[/url] => http://screenshotcomparison.com/comparison/103706/picture:2
перевод тотже.
Скачать

Скачать торрент! Наша династия / Hamara Khandaan (Анвар Паша / Anwar Pasha) [1988, Индия, Мелодрама, DVDRip] DVO (Фильм-Экспорт) + Sub Rus (на песни)

Как скачивать? · Что такое торрент? · Рейтинг и ограничения

Сайт не распространяет и не хранит электронные версии произведений, а лишь предоставляет доступ к создаваемому пользователями каталогу ссылок на торрент-файлы, которые содержат только списки хеш-сумм

[Профиль] [ЛС]
Показать сообщения:    
Ответить на тему

Текущее время: Сегодня 14:47

Часовой пояс: GMT + 4



Вы не можете начинать темы
Вы не можете отвечать на сообщения
Вы не можете редактировать свои сообщения
Вы не можете удалять свои сообщения
Вы не можете голосовать в опросах
Вы не можете прикреплять файлы к сообщениям
Вы не можете скачивать файлы